  0
SECTION
  2
HEADER
  9
$ACADVER
  1
AC1021
  9
$ACADMAINTVER
 70
     1
  9
$DWGCODEPAGE
  3
ANSI_936
  9
$LASTSAVEDBY
  1
Administrator
  9
$INSBASE
 10
0.0
 20
0.0
 30
0.0
  9
$EXTMIN
 10
762.6118673722921
 20
202.4731305689897
 30
0.0
  9
$EXTMAX
 10
1303.164010755413
 20
942.8573385900582
 30
0.0
  9
$LIMMIN
 10
0.0
 20
0.0
  9
$LIMMAX
 10
420.0
 20
297.0
  9
$ORTHOMODE
 70
     1
  9
$REGENMODE
 70
     1
  9
$FILLMODE
 70
     1
  9
$QTEXTMODE
 70
     0
  9
$MIRRTEXT
 70
     0
  9
$LTSCALE
 40
1.0
  9
$ATTMODE
 70
     1
  9
$TEXTSIZE
 40
2.5
  9
$TRACEWID
 40
1.0
  9
$TEXTSTYLE
  7
Standard
  9
$CLAYER
  8
图层1
  9
$CELTYPE
  6
ByLayer
  9
$CECOLOR
 62
   256
  9
$CELTSCALE
 40
1.0
  9
$DISPSILH
 70
     0
  9
$DIMSCALE
 40
1.0
  9
$DIMASZ
 40
7.5
  9
$DIMEXO
 40
0.625
  9
$DIMDLI
 40
3.75
  9
$DIMRND
 40
0.0
  9
$DIMDLE
 40
0.0
  9
$DIMEXE
 40
1.25
  9
$DIMTP
 40
0.0
  9
$DIMTM
 40
0.0
  9
$DIMTXT
 40
7.5
  9
$DIMCEN
 40
2.5
  9
$DIMTSZ
 40
0.0
  9
$DIMTOL
 70
     0
  9
$DIMLIM
 70
     0
  9
$DIMTIH
 70
     0
  9
$DIMTOH
 70
     0
  9
$DIMSE1
 70
     0
  9
$DIMSE2
 70
     0
  9
$DIMTAD
 70
     0
  9
$DIMZIN
 70
     8
  9
$DIMBLK
  1

  9
$DIMASO
 70
     1
  9
$DIMSHO
 70
     1
  9
$DIMPOST
  1

  9
$DIMAPOST
  1

  9
$DIMALT
 70
     0
  9
$DIMALTD
 70
     3
  9
$DIMALTF
 40
0.03937007874016
  9
$DIMLFAC
 40
1.0
  9
$DIMTOFL
 70
     1
  9
$DIMTVP
 40
0.0
  9
$DIMTIX
 70
     0
  9
$DIMSOXD
 70
     0
  9
$DIMSAH
 70
     0
  9
$DIMBLK1
  1

  9
$DIMBLK2
  1

  9
$DIMSTYLE
  2
ISO-25
  9
$DIMCLRD
 70
     0
  9
$DIMCLRE
 70
     0
  9
$DIMCLRT
 70
     0
  9
$DIMTFAC
 40
1.0
  9
$DIMGAP
 40
0.625
  9
$DIMJUST
 70
     0
  9
$DIMSD1
 70
     0
  9
$DIMSD2
 70
     0
  9
$DIMTOLJ
 70
     0
  9
$DIMTZIN
 70
     8
  9
$DIMALTZ
 70
     0
  9
$DIMALTTZ
 70
     0
  9
$DIMUPT
 70
     0
  9
$DIMDEC
 70
     2
  9
$DIMTDEC
 70
     2
  9
$DIMALTU
 70
     2
  9
$DIMALTTD
 70
     3
  9
$DIMTXSTY
  7
Standard
  9
$DIMAUNIT
 70
     0
  9
$DIMADEC
 70
     0
  9
$DIMALTRND
 40
0.0
  9
$DIMAZIN
 70
     0
  9
$DIMDSEP
 70
    44
  9
$DIMATFIT
 70
     3
  9
$DIMFRAC
 70
     0
  9
$DIMLDRBLK
  1

  9
$DIMLUNIT
 70
     2
  9
$DIMLWD
 70
    -2
  9
$DIMLWE
 70
    -2
  9
$DIMTMOVE
 70
     0
  9
$DIMFXL
 40
1.0
  9
$DIMFXLON
 70
     0
  9
$DIMJOGANG
 40
1.570796326794896
  9
$DIMTFILL
 70
     0
  9
$DIMTFILLCLR
 70
     0
  9
$DIMARCSYM
 70
     0
  9
$DIMLTYPE
  6

  9
$DIMLTEX1
  6

  9
$DIMLTEX2
  6

  9
$LUNITS
 70
     2
  9
$LUPREC
 70
     4
  9
$SKETCHINC
 40
1.0
  9
$FILLETRAD
 40
10.0
  9
$AUNITS
 70
     0
  9
$AUPREC
 70
     0
  9
$MENU
  1
.
  9
$ELEVATION
 40
0.0
  9
$PELEVATION
 40
0.0
  9
$THICKNESS
 40
0.0
  9
$LIMCHECK
 70
     0
  9
$CHAMFERA
 40
0.0
  9
$CHAMFERB
 40
0.0
  9
$CHAMFERC
 40
0.0
  9
$CHAMFERD
 40
0.0
  9
$SKPOLY
 70
     0
  9
$TDCREATE
 40
2458246.712864884
  9
$TDUCREATE
 40
2458246.379531551
  9
$TDUPDATE
 40
2458854.662460926
  9
$TDUUPDATE
 40
2458854.329127593
  9
$TDINDWG
 40
0.0710879745
  9
$TDUSRTIMER
 40
0.0710868750
  9
$USRTIMER
 70
     1
  9
$ANGBASE
 50
0.0
  9
$ANGDIR
 70
     0
  9
$PDMODE
 70
     0
  9
$PDSIZE
 40
0.0
  9
$PLINEWID
 40
0.0
  9
$SPLFRAME
 70
     0
  9
$SPLINETYPE
 70
     6
  9
$SPLINESEGS
 70
     8
  9
$HANDSEED
  5
825
  9
$SURFTAB1
 70
     6
  9
$SURFTAB2
 70
     6
  9
$SURFTYPE
 70
     6
  9
$SURFU
 70
     6
  9
$SURFV
 70
     6
  9
$UCSBASE
  2

  9
$UCSNAME
  2

  9
$UCSORG
 10
0.0
 20
0.0
 30
0.0
  9
$UCSXDIR
 10
1.0
 20
0.0
 30
0.0
  9
$UCSYDIR
 10
0.0
 20
1.0
 30
0.0
  9
$UCSORTHOREF
  2

  9
$UCSORTHOVIEW
 70
     0
  9
$UCSORGTOP
 10
0.0
 20
0.0
 30
0.0
  9
$UCSORGBOTTOM
 10
0.0
 20
0.0
 30
0.0
  9
$UCSORGLEFT
 10
0.0
 20
0.0
 30
0.0
  9
$UCSORGRIGHT
 10
0.0
 20
0.0
 30
0.0
  9
$UCSORGFRONT
 10
0.0
 20
0.0
 30
0.0
  9
$UCSORGBACK
 10
0.0
 20
0.0
 30
0.0
  9
$PUCSBASE
  2

  9
$PUCSNAME
  2

  9
$PUCSORG
 10
0.0
 20
0.0
 30
0.0
  9
$PUCSXDIR
 10
1.0
 20
0.0
 30
0.0
  9
$PUCSYDIR
 10
0.0
 20
1.0
 30
0.0
  9
$PUCSORTHOREF
  2

  9
$PUCSORTHOVIEW
 70
     0
  9
$PUCSORGTOP
 10
0.0
 20
0.0
 30
0.0
  9
$PUCSORGBOTTOM
 10
0.0
 20
0.0
 30
0.0
  9
$PUCSORGLEFT
 10
0.0
 20
0.0
 30
0.0
  9
$PUCSORGRIGHT
 10
0.0
 20
0.0
 30
0.0
  9
$PUCSORGFRONT
 10
0.0
 20
0.0
 30
0.0
  9
$PUCSORGBACK
 10
0.0
 20
0.0
 30
0.0
  9
$USERI1
 70
     0
  9
$USERI2
 70
     0
  9
$USERI3
 70
     0
  9
$USERI4
 70
     0
  9
$USERI5
 70
     0
  9
$USERR1
 40
0.0
  9
$USERR2
 40
0.0
  9
$USERR3
 40
0.0
  9
$USERR4
 40
0.0
  9
$USERR5
 40
0.0
  9
$WORLDVIEW
 70
     1
  9
$SHADEDGE
 70
     3
  9
$SHADEDIF
 70
    70
  9
$TILEMODE
 70
     1
  9
$MAXACTVP
 70
    64
  9
$PINSBASE
 10
0.0
 20
0.0
 30
0.0
  9
$PLIMCHECK
 70
     0
  9
$PEXTMIN
 10
0.0
 20
0.0
 30
0.0
  9
$PEXTMAX
 10
0.0
 20
0.0
 30
0.0
  9
$PLIMMIN
 10
0.0
 20
0.0
  9
$PLIMMAX
 10
12.0
 20
9.0
  9
$UNITMODE
 70
     0
  9
$VISRETAIN
 70
     1
  9
$PLINEGEN
 70
     0
  9
$PSLTSCALE
 70
     1
  9
$TREEDEPTH
 70
  3020
  9
$CMLSTYLE
  2
Standard
  9
$CMLJUST
 70
     0
  9
$CMLSCALE
 40
20.0
  9
$PROXYGRAPHICS
 70
     1
  9
$MEASUREMENT
 70
     1
  9
$CELWEIGHT
370
    -1
  9
$ENDCAPS
280
     0
  9
$JOINSTYLE
280
     0
  9
$LWDISPLAY
290
     1
  9
$INSUNITS
 70
     4
  9
$HYPERLINKBASE
  1

  9
$STYLESHEET
  1

  9
$XEDIT
290
     1
  9
$CEPSNTYPE
380
     0
  9
$PSTYLEMODE
290
     1
  9
$FINGERPRINTGUID
  2
{7626F40D-A79B-4565-BCB0-1C90CEC679FE}
  9
$VERSIONGUID
  2
{791F4969-AD5A-4A74-A6CC-1DF89B278284}
  9
$EXTNAMES
290
     1
  9
$PSVPSCALE
 40
0.0
  9
$OLESTARTUP
290
     0
  9
$SORTENTS
280
   127
  9
$INDEXCTL
280
     0
  9
$HIDETEXT
280
     1
  9
$XCLIPFRAME
290
     0
  9
$HALOGAP
280
     0
  9
$OBSCOLOR
 70
   257
  9
$OBSLTYPE
280
     0
  9
$INTERSECTIONDISPLAY
280
     0
  9
$INTERSECTIONCOLOR
 70
   257
  9
$DIMASSOC
280
     2
  9
$PROJECTNAME
  1

  9
$CAMERADISPLAY
290
     0
  9
$LENSLENGTH
 40
50.0
  9
$CAMERAHEIGHT
 40
0.0
  9
$STEPSPERSEC
 40
2.0
  9
$STEPSIZE
 40
6.0
  9
$3DDWFPREC
 40
2.0
  9
$PSOLWIDTH
 40
5.0
  9
$PSOLHEIGHT
 40
80.0
  9
$LOFTANG1
 40
1.570796326794896
  9
$LOFTANG2
 40
1.570796326794896
  9
$LOFTMAG1
 40
0.0
  9
$LOFTMAG2
 40
0.0
  9
$LOFTPARAM
 70
     7
  9
$LOFTNORMALS
280
     1
  9
$LATITUDE
 40
37.795
  9
$LONGITUDE
 40
-122.394
  9
$NORTHDIRECTION
 40
0.0
  9
$TIMEZONE
 70
 -8000
  9
$LIGHTGLYPHDISPLAY
280
     1
  9
$TILEMODELIGHTSYNCH
280
     1
  9
$CMATERIAL
347
ED
  9
$SOLIDHIST
280
     1
  9
$SHOWHIST
280
     1
  9
$DWFFRAME
280
     2
  9
$DGNFRAME
280
     0
  9
$REALWORLDSCALE
290
     1
  9
$INTERFERECOLOR
 62
     1
  9
$INTERFEREOBJVS
345
FA
  9
$INTERFEREVPVS
346
F7
  9
$CSHADOW
280
     0
  9
$SHADOWPLANELOCATION
 40
0.0
  0
ENDSEC
  0
SECTION
  2
CLASSES
  0
CLASS
  1
ACDBDICTIONARYWDFLT
  2
AcDbDictionaryWithDefault
  3
ObjectDBX Classes
 90
        0
 91
        1
280
     0
281
     0
  0
CLASS
  1
DICTIONARYVAR
  2
AcDbDictionaryVar
  3
ObjectDBX Classes
 90
        0
 91
        3
280
     0
281
     0
  0
CLASS
  1
TABLESTYLE
  2
AcDbTableStyle
  3
ObjectDBX Classes
 90
     4095
 91
        1
280
     0
281
     0
  0
CLASS
  1
MATERIAL
  2
AcDbMaterial
  3
ObjectDBX Classes
 90
     1024
 91
        3
280
     0
281
     0
  0
CLASS
  1
VISUALSTYLE
  2
AcDbVisualStyle
  3
ObjectDBX Classes
 90
     4095
 91
       16
280
     0
281
     0
  0
CLASS
  1
SORTENTSTABLE
  2
AcDbSortentsTable
  3
ObjectDBX Classes
 90
        0
 91
        1
280
     0
281
     0
  0
CLASS
  1
DIMASSOC
  2
AcDbDimAssoc
  3
"AcDbDimAssoc|Product Desc:     AcDim ARX App For Dimension|Company:          Autodesk, Inc.|WEB Address:      www.autodesk.com"
 90
        0
 91
        2
280
     0
281
     0
  0
ENDSEC
  0
SECTION
  2
TABLES
  0
TABLE
  2
VPORT
  5
8
330
0
100
AcDbSymbolTable
 70
     1
  0
VPORT
  5
EB
330
8
100
AcDbSymbolTableRecord
100
AcDbViewportTableRecord
  2
*Active
 70
     0
 10
0.0
 20
0.0
 11
1.0
 21
1.0
 12
1072.795379129997
 22
610.9127432011121
 13
0.0
 23
0.0
 14
10.0
 24
10.0
 15
10.0
 25
10.0
 16
0.0
 26
0.0
 36
1.0
 17
0.0
 27
0.0
 37
0.0
 40
761.0480920036743
 41
2.223150357995226
 42
50.0
 43
0.0
 44
0.0
 50
0.0
 51
0.0
 71
     0
 72
  1000
 73
     1
 74
     3
 75
     0
 76
     0
 77
     0
 78
     0
281
     0
 65
     1
110
0.0
120
0.0
130
0.0
111
1.0
121
0.0
131
0.0
112
0.0
122
1.0
132
0.0
 79
     0
146
0.0
348
F6
 60
     2
 61
     5
292
     1
282
     1
141
0.0
142
0.0
 63
   250
421
  3355443
  0
ENDTAB
  0
TABLE
  2
LTYPE
  5
5
330
0
100
AcDbSymbolTable
 70
     3
  0
LTYPE
  5
14
330
5
100
AcDbSymbolTableRecord
100
AcDbLinetypeTableRecord
  2
ByBlock
 70
     0
  3

 72
    65
 73
     0
 40
0.0
  0
LTYPE
  5
15
330
5
100
AcDbSymbolTableRecord
100
AcDbLinetypeTableRecord
  2
ByLayer
 70
     0
  3

 72
    65
 73
     0
 40
0.0
  0
LTYPE
  5
16
330
5
100
AcDbSymbolTableRecord
100
AcDbLinetypeTableRecord
  2
Continuous
 70
     0
  3
Solid line
 72
    65
 73
     0
 40
0.0
  0
LTYPE
  5
12A
330
5
100
AcDbSymbolTableRecord
100
AcDbLinetypeTableRecord
  2
ACAD_ISO04W100
 70
     0
  3
ISO long-dash dot ____ . ____ . ____ . ____ . _
 72
    65
 73
     4
 40
30.0
 49
24.0
 74
     0
 49
-3.0
 74
     0
 49
0.0
 74
     0
 49
-3.0
 74
     0
  0
LTYPE
  5
12B
330
5
100
AcDbSymbolTableRecord
100
AcDbLinetypeTableRecord
  2
ACAD_ISO02W100
 70
     0
  3
ISO dash __ __ __ __ __ __ __ __ __ __ __ __ __
 72
    65
 73
     2
 40
15.0
 49
12.0
 74
     0
 49
-3.0
 74
     0
  0
ENDTAB
  0
TABLE
  2
LAYER
  5
2
102
{ACAD_XDICTIONARY
360
12C
102
}
330
0
100
AcDbSymbolTable
 70
     7
  0
LAYER
  5
10
330
2
100
AcDbSymbolTableRecord
100
AcDbLayerTableRecord
  2
0
 70
     0
 62
     7
  6
Continuous
370
    -3
390
F
347
EF
  0
LAYER
  5
123
330
2
100
AcDbSymbolTableRecord
100
AcDbLayerTableRecord
  2
CENTER
 70
     0
 62
     1
  6
ACAD_ISO04W100
370
    -3
390
F
347
EF
1001
AcAecLayerStandard
1000

1000

  0
LAYER
  5
125
330
2
100
AcDbSymbolTableRecord
100
AcDbLayerTableRecord
  2
DIM
 70
     0
 62
     7
  6
ACAD_ISO02W100
370
    -3
390
F
347
EF
1001
AcAecLayerStandard
1000

1000

  0
LAYER
  5
126
330
2
100
AcDbSymbolTableRecord
100
AcDbLayerTableRecord
  2
DASH
 70
     0
 62
     6
  6
ACAD_ISO02W100
370
    -3
390
F
347
EF
1001
AcAecLayerStandard
1000

1000

  0
LAYER
  5
127
330
2
100
AcDbSymbolTableRecord
100
AcDbLayerTableRecord
  2
CON
 70
     0
 62
     7
  6
Continuous
370
    30
390
F
347
EF
1001
AcAecLayerStandard
1000

1000

  0
LAYER
  5
177
330
2
100
AcDbSymbolTableRecord
100
AcDbLayerTableRecord
  2
Defpoints
 70
     0
 62
     7
  6
Continuous
290
     0
370
    -3
390
F
347
EF
  0
LAYER
  5
557
330
2
100
AcDbSymbolTableRecord
100
AcDbLayerTableRecord
  2
图层1
 70
     0
 62
     7
  6
ACAD_ISO02W100
370
    -3
390
F
347
EF
1001
AcAecLayerStandard
1000

1000

  0
ENDTAB
  0
TABLE
  2
STYLE
  5
3
330
0
100
AcDbSymbolTable
 70
     2
  0
STYLE
  5
11
330
3
100
AcDbSymbolTableRecord
100
AcDbTextStyleTableRecord
  2
Standard
 70
     0
 40
0.0
 41
1.0
 50
0.0
 71
     0
 42
2.5
  3
txt
  4
gbcbig.shx
  0
STYLE
  5
129
330
3
100
AcDbSymbolTableRecord
100
AcDbTextStyleTableRecord
  2

 70
     1
 40
0.0
 41
1.0
 50
0.0
 71
     0
 42
2.5
  3
ltypeshp.shx
  4

  0
ENDTAB
  0
TABLE
  2
VIEW
  5
6
330
0
100
AcDbSymbolTable
 70
     0
  0
ENDTAB
  0
TABLE
  2
UCS
  5
7
330
0
100
AcDbSymbolTable
 70
     0
  0
ENDTAB
  0
TABLE
  2
APPID
  5
9
330
0
100
AcDbSymbolTable
 70
     4
  0
APPID
  5
12
330
9
100
AcDbSymbolTableRecord
100
AcDbRegAppTableRecord
  2
ACAD
 70
     0
  0
APPID
  5
9E
330
9
100
AcDbSymbolTableRecord
100
AcDbRegAppTableRecord
  2
ACAD_PSEXT
 70
     0
  0
APPID
  5
124
330
9
100
AcDbSymbolTableRecord
100
AcDbRegAppTableRecord
  2
AcAecLayerStandard
 70
     0
  0
APPID
  5
130
330
9
100
AcDbSymbolTableRecord
100
AcDbRegAppTableRecord
  2
ACAD_EXEMPT_FROM_CAD_STANDARDS
 70
     0
  0
ENDTAB
  0
TABLE
  2
DIMSTYLE
  5
A
330
0
100
AcDbSymbolTable
 70
     1
100
AcDbDimStyleTable
 71
     1
340
27
  0
DIMSTYLE
105
27
102
{ACAD_REACTORS
330
3DC
330
543
330
611
330
62B
330
645
330
65F
330
697
330
6B1
330
7DA
102
}
330
A
100
AcDbSymbolTableRecord
100
AcDbDimStyleTableRecord
  2
ISO-25
 70
     0
 41
7.5
 42
0.625
 43
3.75
 44
1.25
 50
90.0
 73
     0
 74
     0
 78
     8
140
7.5
141
2.5
143
0.03937007874016
147
0.625
171
     3
172
     1
271
     2
272
     2
274
     3
278
    44
283
     0
284
     8
340
11
  0
ENDTAB
  0
TABLE
  2
BLOCK_RECORD
  5
1
330
0
100
AcDbSymbolTable
 70
     9
  0
BLOCK_RECORD
  5
1F
102
{ACAD_XDICTIONARY
360
14F
102
}
330
1
100
AcDbSymbolTableRecord
100
AcDbBlockTableRecord
  2
*Model_Space
340
22
 70
     0
280
     1
281
     0
  0
BLOCK_RECORD
  5
D2
330
1
100
AcDbSymbolTableRecord
100
AcDbBlockTableRecord
  2
*Paper_Space
340
D3
 70
     0
280
     1
281
     0
  0
BLOCK_RECORD
  5
D6
330
1
100
AcDbSymbolTableRecord
100
AcDbBlockTableRecord
  2
*Paper_Space0
340
D7
 70
     0
280
     1
281
     0
  0
BLOCK_RECORD
  5
3DD
330
1
100
AcDbSymbolTableRecord
100
AcDbBlockTableRecord
  2
*D1
340
0
 70
     0
280
     1
281
     0
  0
BLOCK_RECORD
  5
612
330
1
100
AcDbSymbolTableRecord
100
AcDbBlockTableRecord
  2
*D2
340
0
 70
     0
280
     1
281
     0
  0
BLOCK_RECORD
  5
62C
330
1
100
AcDbSymbolTableRecord
100
AcDbBlockTableRecord
  2
*D3
340
0
 70
     0
280
     1
281
     0
  0
BLOCK_RECORD
  5
646
330
1
100
AcDbSymbolTableRecord
100
AcDbBlockTableRecord
  2
*D4
340
0
 70
     0
280
     1
281
     0
  0
BLOCK_RECORD
  5
660
330
1
100
AcDbSymbolTableRecord
100
AcDbBlockTableRecord
  2
*D5
340
0
 70
     0
280
     1
281
     0
  0
BLOCK_RECORD
  5
698
330
1
100
AcDbSymbolTableRecord
100
AcDbBlockTableRecord
  2
*D6
340
0
 70
     0
280
     1
281
     0
  0
BLOCK_RECORD
  5
6B2
330
1
100
AcDbSymbolTableRecord
100
AcDbBlockTableRecord
  2
*D7
340
0
 70
     0
280
     1
281
     0
  0
BLOCK_RECORD
  5
7DB
330
1
100
AcDbSymbolTableRecord
100
AcDbBlockTableRecord
  2
*D8
340
0
 70
     0
280
     1
281
     0
  0
ENDTAB
  0
ENDSEC
  0
SECTION
  2
BLOCKS
  0
BLOCK
  5
20
330
1F
100
AcDbEntity
  8
0
100
AcDbBlockBegin
  2
*Model_Space
 70
     0
 10
0.0
 20
0.0
 30
0.0
  3
*Model_Space
  1

  0
ENDBLK
  5
21
330
1F
100
AcDbEntity
  8
0
100
AcDbBlockEnd
  0
BLOCK
  5
D4
330
D2
100
AcDbEntity
 67
     1
  8
0
100
AcDbBlockBegin
  2
*Paper_Space
 70
     0
 10
0.0
 20
0.0
 30
0.0
  3
*Paper_Space
  1

  0
ENDBLK
  5
D5
330
D2
100
AcDbEntity
 67
     1
  8
0
100
AcDbBlockEnd
  0
BLOCK
  5
D8
330
D6
100
AcDbEntity
 67
     1
  8
0
100
AcDbBlockBegin
  2
*Paper_Space0
 70
     0
 10
0.0
 20
0.0
 30
0.0
  3
*Paper_Space0
  1

  0
ENDBLK
  5
D9
330
D6
100
AcDbEntity
 67
     1
  8
0
100
AcDbBlockEnd
  0
BLOCK
  5
3E6
330
3DD
100
AcDbEntity
  8
0
100
AcDbBlockBegin
  2
*D1
 70
     1
 10
0.0
 20
0.0
 30
0.0
  3
*D1
  1

  0
LINE
  5
5B9
330
3DD
100
AcDbEntity
  8
Defpoints
 62
     0
370
    -2
100
AcDbLine
 10
1029.16429022407
 20
809.0022804197719
 30
0.0
 11
1036.664232799003
 21
809.0316295713519
 31
0.0
  0
LINE
  5
5BA
330
3DD
100
AcDbEntity
  8
Defpoints
 62
     0
370
    -2
100
AcDbLine
 10
1094.663788711823
 20
809.2585963435727
 30
0.0
 11
1102.163731286757
 21
809.2879454951527
 31
0.0
  0
MTEXT
  5
5BB
330
3DD
100
AcDbEntity
  8
Defpoints
 62
     0
100
AcDbMText
 10
1011.91438730199
 20
808.9347772341747
 30
0.0
 40
7.5
 41
0.0
 46
0.0
 71
     5
 72
     1
  1
{\H1.4x;%%C1\H0.7x;\S11/16;\H1.4286x;"}
 11
0.999992343324479
 21
0.0039132202107002
 31
0.0
 73
     1
 44
1.0
  0
LINE
  5
5BC
330
3DD
100
AcDbEntity
  8
Defpoints
 62
     0
370
    -2
100
AcDbLine
 10
1087.16384613689
 20
809.2292471919925
 30
0.0
 11
1044.164175373937
 21
809.0609787229324
 31
0.0
  0
SOLID
  5
5BD
330
3DD
100
AcDbEntity
  8
Defpoints
 62
     0
100
AcDbTrace
 10
1094.65889718656
 20
810.5085867727282
 30
0.0
 11
1094.668680237087
 21
808.0086059144171
 31
0.0
 12
1087.16384613689
 22
809.2292471919925
 32
0.0
 13
1087.16384613689
 23
809.2292471919925
 33
0.0
  0
SOLID
  5
5BE
330
3DD
100
AcDbEntity
  8
Defpoints
 62
     0
100
AcDbTrace
 10
1036.65934127374
 20
810.2816200005076
 30
0.0
 11
1036.669124324267
 21
807.7816391421965
 31
0.0
 12
1044.164175373937
 22
809.0609787229324
 32
0.0
 13
1044.164175373937
 23
809.0609787229324
 33
0.0
  0
POINT
  5
5BF
330
3DD
100
AcDbEntity
  8
Defpoints
 62
     0
100
AcDbPoint
 10
1044.164175373937
 20
809.0609787229324
 30
0.0
  0
POINT
  5
5C0
330
3DD
100
AcDbEntity
  8
Defpoints
 62
     0
100
AcDbPoint
 10
1087.16384613689
 20
809.2292471919925
 30
0.0
  0
ENDBLK
  5
3E7
330
3DD
100
AcDbEntity
  8
0
100
AcDbBlockEnd
  0
BLOCK
  5
61D
330
612
100
AcDbEntity
  8
0
100
AcDbBlockBegin
  2
*D2
 70
     1
 10
0.0
 20
0.0
 30
0.0
  3
*D2
  1

  0
LINE
  5
6F3
330
612
100
AcDbEntity
  8
Defpoints
 62
     0
370
    -2
100
AcDbLine
 10
828.164010755413
 20
747.2323385900581
 30
0.0
 11
828.164010755413
 21
506.0693844983177
 31
0.0
  0
LINE
  5
6F4
330
612
100
AcDbEntity
  8
Defpoints
 62
     0
370
    -2
100
AcDbLine
 10
1303.164010755413
 20
747.2323385900581
 30
0.0
 11
1303.164010755413
 21
506.0693844983177
 31
0.0
  0
LINE
  5
6F5
330
612
100
AcDbEntity
  8
Defpoints
 62
     0
370
    -2
100
AcDbLine
 10
835.6640107554131
 20
507.3193844983177
 30
0.0
 11
1045.039010755413
 21
507.3193844983177
 31
0.0
  0
LINE
  5
6F6
330
612
100
AcDbEntity
  8
Defpoints
 62
     0
370
    -2
100
AcDbLine
 10
1295.664010755413
 20
507.3193844983177
 30
0.0
 11
1086.289010755413
 21
507.3193844983177
 31
0.0
  0
SOLID
  5
6F7
330
612
100
AcDbEntity
  8
Defpoints
 62
     0
100
AcDbTrace
 10
835.6640107554131
 20
508.5693844983177
 30
0.0
 11
835.6640107554131
 21
506.0693844983177
 31
0.0
 12
828.164010755413
 22
507.3193844983177
 32
0.0
 13
828.164010755413
 23
507.3193844983177
 33
0.0
  0
SOLID
  5
6F8
330
612
100
AcDbEntity
  8
Defpoints
 62
     0
100
AcDbTrace
 10
1295.664010755413
 20
508.5693844983177
 30
0.0
 11
1295.664010755413
 21
506.0693844983177
 31
0.0
 12
1303.164010755413
 22
507.3193844983177
 32
0.0
 13
1303.164010755413
 23
507.3193844983177
 33
0.0
  0
MTEXT
  5
6F9
330
612
100
AcDbEntity
  8
Defpoints
 62
     0
100
AcDbMText
 10
1065.664010755413
 20
507.3193844983177
 30
0.0
 40
7.5
 41
0.0
 46
0.0
 71
     5
 72
     1
  1
18-5/8
 73
     1
 44
1.0
  0
POINT
  5
6FA
330
612
100
AcDbEntity
  8
Defpoints
 62
     0
100
AcDbPoint
 10
828.164010755413
 20
747.8573385900581
 30
0.0
  0
POINT
  5
6FB
330
612
100
AcDbEntity
  8
Defpoints
 62
     0
100
AcDbPoint
 10
1303.164010755413
 20
747.8573385900581
 30
0.0
  0
POINT
  5
6FC
330
612
100
AcDbEntity
  8
Defpoints
 62
     0
100
AcDbPoint
 10
1303.164010755413
 20
507.3193844983177
 30
0.0
  0
ENDBLK
  5
61E
330
612
100
AcDbEntity
  8
0
100
AcDbBlockEnd
  0
BLOCK
  5
637
330
62C
100
AcDbEntity
  8
0
100
AcDbBlockBegin
  2
*D3
 70
     1
 10
0.0
 20
0.0
 30
0.0
  3
*D3
  1

  0
LINE
  5
6FD
330
62C
100
AcDbEntity
  8
Defpoints
 62
     0
370
    -2
100
AcDbLine
 10
853.164010755413
 20
747.2323385900581
 30
0.0
 11
853.164010755413
 21
530.816355314327
 31
0.0
  0
LINE
  5
6FE
330
62C
100
AcDbEntity
  8
Defpoints
 62
     0
370
    -2
100
AcDbLine
 10
1278.164010755413
 20
747.2323385900581
 30
0.0
 11
1278.164010755413
 21
530.816355314327
 31
0.0
  0
LINE
  5
6FF
330
62C
100
AcDbEntity
  8
Defpoints
 62
     0
370
    -2
100
AcDbLine
 10
860.6640107554131
 20
532.0663553143269
 30
0.0
 11
1045.039010755413
 21
532.0663553143269
 31
0.0
  0
LINE
  5
700
330
62C
100
AcDbEntity
  8
Defpoints
 62
     0
370
    -2
100
AcDbLine
 10
1270.664010755413
 20
532.0663553143269
 30
0.0
 11
1086.289010755413
 21
532.0663553143269
 31
0.0
  0
SOLID
  5
701
330
62C
100
AcDbEntity
  8
Defpoints
 62
     0
100
AcDbTrace
 10
860.6640107554131
 20
533.3163553143269
 30
0.0
 11
860.6640107554131
 21
530.816355314327
 31
0.0
 12
853.164010755413
 22
532.0663553143269
 32
0.0
 13
853.164010755413
 23
532.0663553143269
 33
0.0
  0
SOLID
  5
702
330
62C
100
AcDbEntity
  8
Defpoints
 62
     0
100
AcDbTrace
 10
1270.664010755413
 20
533.3163553143269
 30
0.0
 11
1270.664010755413
 21
530.816355314327
 31
0.0
 12
1278.164010755413
 22
532.0663553143269
 32
0.0
 13
1278.164010755413
 23
532.0663553143269
 33
0.0
  0
MTEXT
  5
703
330
62C
100
AcDbEntity
  8
Defpoints
 62
     0
100
AcDbMText
 10
1065.664010755413
 20
532.0663553143269
 30
0.0
 40
7.5
 41
0.0
 46
0.0
 71
     5
 72
     1
  1
16-5/8
 73
     1
 44
1.0
  0
POINT
  5
704
330
62C
100
AcDbEntity
  8
Defpoints
 62
     0
100
AcDbPoint
 10
853.164010755413
 20
747.8573385900581
 30
0.0
  0
POINT
  5
705
330
62C
100
AcDbEntity
  8
Defpoints
 62
     0
100
AcDbPoint
 10
1278.164010755413
 20
747.8573385900581
 30
0.0
  0
POINT
  5
706
330
62C
100
AcDbEntity
  8
Defpoints
 62
     0
100
AcDbPoint
 10
1278.164010755413
 20
532.0663553143269
 30
0.0
  0
ENDBLK
  5
638
330
62C
100
AcDbEntity
  8
0
100
AcDbBlockEnd
  0
BLOCK
  5
651
330
646
100
AcDbEntity
  8
0
100
AcDbBlockBegin
  2
*D4
 70
     1
 10
0.0
 20
0.0
 30
0.0
  3
*D4
  1

  0
LINE
  5
7B1
330
646
100
AcDbEntity
  8
Defpoints
 62
     0
370
    -2
100
AcDbLine
 10
1065.039010755413
 20
942.857338590058
 30
0.0
 11
765.1118673722923
 21
942.8573385900582
 31
0.0
  0
LINE
  5
7B2
330
646
100
AcDbEntity
  8
Defpoints
 62
     0
370
    -2
100
AcDbLine
 10
1065.039010755413
 20
552.8573385900581
 30
0.0
 11
765.1118673722923
 21
552.8573385900582
 31
0.0
  0
LINE
  5
7B3
330
646
100
AcDbEntity
  8
Defpoints
 62
     0
370
    -2
100
AcDbLine
 10
766.3618673722924
 20
935.3573385900583
 30
0.0
 11
766.3618673722924
 21
770.982338590058
 31
0.0
  0
LINE
  5
7B4
330
646
100
AcDbEntity
  8
Defpoints
 62
     0
370
    -2
100
AcDbLine
 10
766.3618673722923
 20
560.3573385900582
 30
0.0
 11
766.3618673722923
 21
724.732338590058
 31
0.0
  0
SOLID
  5
7B5
330
646
100
AcDbEntity
  8
Defpoints
 62
     0
100
AcDbTrace
 10
765.1118673722923
 20
935.3573385900583
 30
0.0
 11
767.6118673722924
 21
935.3573385900583
 31
0.0
 12
766.3618673722924
 22
942.8573385900582
 32
0.0
 13
766.3618673722924
 23
942.8573385900582
 33
0.0
  0
SOLID
  5
7B6
330
646
100
AcDbEntity
  8
Defpoints
 62
     0
100
AcDbTrace
 10
765.1118673722923
 20
560.3573385900582
 30
0.0
 11
767.6118673722923
 21
560.3573385900582
 31
0.0
 12
766.3618673722923
 22
552.8573385900582
 32
0.0
 13
766.3618673722923
 23
552.8573385900582
 33
0.0
  0
MTEXT
  5
7B7
330
646
100
AcDbEntity
  8
Defpoints
 62
     0
100
AcDbMText
 10
766.3618673722922
 20
747.8573385900581
 30
0.0
 40
7.5
 41
0.0
 46
0.0
 71
     5
 72
     1
  1
15-3/8"
 11
0.0000000000000001
 21
1.0
 31
0.0
 73
     1
 44
1.0
  0
POINT
  5
7B8
330
646
100
AcDbEntity
  8
Defpoints
 62
     0
100
AcDbPoint
 10
1065.664010755413
 20
942.857338590058
 30
0.0
  0
POINT
  5
7B9
330
646
100
AcDbEntity
  8
Defpoints
 62
     0
100
AcDbPoint
 10
1065.664010755413
 20
552.8573385900581
 30
0.0
  0
POINT
  5
7BA
330
646
100
AcDbEntity
  8
Defpoints
 62
     0
100
AcDbPoint
 10
766.3618673722923
 20
552.8573385900582
 30
0.0
  0
ENDBLK
  5
652
330
646
100
AcDbEntity
  8
0
100
AcDbBlockEnd
  0
BLOCK
  5
66B
330
660
100
AcDbEntity
  8
0
100
AcDbBlockBegin
  2
*D5
 70
     1
 10
0.0
 20
0.0
 30
0.0
  3
*D5
  1

  0
LINE
  5
7BB
330
660
100
AcDbEntity
  8
Defpoints
 62
     0
370
    -2
100
AcDbLine
 10
1065.039010755413
 20
920.3573385900581
 30
0.0
 11
797.9554073507143
 21
920.3573385900581
 31
0.0
  0
LINE
  5
7BC
330
660
100
AcDbEntity
  8
Defpoints
 62
     0
370
    -2
100
AcDbLine
 10
1065.039010755413
 20
575.3573385900581
 30
0.0
 11
797.9554073507142
 21
575.3573385900581
 31
0.0
  0
LINE
  5
7BD
330
660
100
AcDbEntity
  8
Defpoints
 62
     0
370
    -2
100
AcDbLine
 10
799.2054073507143
 20
912.8573385900581
 30
0.0
 11
799.2054073507143
 21
769.7323385900581
 31
0.0
  0
LINE
  5
7BE
330
660
100
AcDbEntity
  8
Defpoints
 62
     0
370
    -2
100
AcDbLine
 10
799.2054073507143
 20
582.8573385900581
 30
0.0
 11
799.2054073507143
 21
725.9823385900581
 31
0.0
  0
SOLID
  5
7BF
330
660
100
AcDbEntity
  8
Defpoints
 62
     0
100
AcDbTrace
 10
797.9554073507143
 20
912.8573385900581
 30
0.0
 11
800.4554073507144
 21
912.8573385900581
 31
0.0
 12
799.2054073507143
 22
920.3573385900581
 32
0.0
 13
799.2054073507143
 23
920.3573385900581
 33
0.0
  0
SOLID
  5
7C0
330
660
100
AcDbEntity
  8
Defpoints
 62
     0
100
AcDbTrace
 10
797.9554073507142
 20
582.8573385900581
 30
0.0
 11
800.4554073507142
 21
582.8573385900581
 31
0.0
 12
799.2054073507143
 22
575.3573385900581
 32
0.0
 13
799.2054073507143
 23
575.3573385900581
 33
0.0
  0
MTEXT
  5
7C1
330
660
100
AcDbEntity
  8
Defpoints
 62
     0
100
AcDbMText
 10
799.2054073507142
 20
747.8573385900583
 30
0.0
 40
7.5
 41
0.0
 46
0.0
 71
     5
 72
     1
  1
13-1/2"
 11
0.0000000000000001
 21
1.0
 31
0.0
 73
     1
 44
1.0
  0
POINT
  5
7C2
330
660
100
AcDbEntity
  8
Defpoints
 62
     0
100
AcDbPoint
 10
1065.664010755413
 20
920.3573385900581
 30
0.0
  0
POINT
  5
7C3
330
660
100
AcDbEntity
  8
Defpoints
 62
     0
100
AcDbPoint
 10
1065.664010755413
 20
575.3573385900581
 30
0.0
  0
POINT
  5
7C4
330
660
100
AcDbEntity
  8
Defpoints
 62
     0
100
AcDbPoint
 10
799.2054073507143
 20
575.3573385900581
 30
0.0
  0
ENDBLK
  5
66C
330
660
100
AcDbEntity
  8
0
100
AcDbBlockEnd
  0
BLOCK
  5
6A3
330
698
100
AcDbEntity
  8
0
100
AcDbBlockBegin
  2
*D6
 70
     1
 10
0.0
 20
0.0
 30
0.0
  3
*D6
  1

  0
LINE
  5
7A7
330
698
100
AcDbEntity
  8
Defpoints
 62
     0
370
    -2
100
AcDbLine
 10
865.664010755413
 20
748.4823385900581
 30
0.0
 11
865.664010755413
 21
749.1073385900581
 31
0.0
  0
LINE
  5
7A8
330
698
100
AcDbEntity
  8
Defpoints
 62
     0
370
    -2
100
AcDbLine
 10
1265.664010755413
 20
748.4823385900581
 30
0.0
 11
1265.664010755413
 21
749.1073385900581
 31
0.0
  0
LINE
  5
7A9
330
698
100
AcDbEntity
  8
Defpoints
 62
     0
370
    -2
100
AcDbLine
 10
873.1640107554131
 20
747.8573385900581
 30
0.0
 11
971.914010755413
 21
747.8573385900581
 31
0.0
  0
LINE
  5
7AA
330
698
100
AcDbEntity
  8
Defpoints
 62
     0
370
    -2
100
AcDbLine
 10
1258.164010755413
 20
747.8573385900581
 30
0.0
 11
1028.164010755413
 21
747.8573385900581
 31
0.0
  0
SOLID
  5
7AB
330
698
100
AcDbEntity
  8
Defpoints
 62
     0
100
AcDbTrace
 10
873.1640107554131
 20
749.1073385900581
 30
0.0
 11
873.1640107554131
 21
746.6073385900581
 31
0.0
 12
865.664010755413
 22
747.8573385900581
 32
0.0
 13
865.664010755413
 23
747.8573385900581
 33
0.0
  0
SOLID
  5
7AC
330
698
100
AcDbEntity
  8
Defpoints
 62
     0
100
AcDbTrace
 10
1258.164010755413
 20
749.1073385900581
 30
0.0
 11
1258.164010755413
 21
746.6073385900581
 31
0.0
 12
1265.664010755413
 22
747.8573385900581
 32
0.0
 13
1265.664010755413
 23
747.8573385900581
 33
0.0
  0
MTEXT
  5
7AD
330
698
100
AcDbEntity
  8
Defpoints
 62
     0
100
AcDbMText
 10
1000.039010755413
 20
747.8573385900581
 30
0.0
 40
7.5
 41
0.0
 46
0.0
 71
     5
 72
     1
  1
15-13/16"
 73
     1
 44
1.0
  0
POINT
  5
7AE
330
698
100
AcDbEntity
  8
Defpoints
 62
     0
100
AcDbPoint
 10
865.664010755413
 20
747.8573385900581
 30
0.0
  0
POINT
  5
7AF
330
698
100
AcDbEntity
  8
Defpoints
 62
     0
100
AcDbPoint
 10
1265.664010755413
 20
747.8573385900581
 30
0.0
  0
POINT
  5
7B0
330
698
100
AcDbEntity
  8
Defpoints
 62
     0
100
AcDbPoint
 10
1265.664010755413
 20
747.8573385900581
 30
0.0
  0
ENDBLK
  5
6A4
330
698
100
AcDbEntity
  8
0
100
AcDbBlockEnd
  0
BLOCK
  5
6BD
330
6B2
100
AcDbEntity
  8
0
100
AcDbBlockBegin
  2
*D7
 70
     1
 10
0.0
 20
0.0
 30
0.0
  3
*D7
  1

  0
LINE
  5
7CF
330
6B2
100
AcDbEntity
  8
Defpoints
 62
     0
370
    -2
100
AcDbLine
 10
1066.289010755413
 20
910.3573385900581
 30
0.0
 11
1066.914010755413
 21
910.3573385900581
 31
0.0
  0
LINE
  5
7D0
330
6B2
100
AcDbEntity
  8
Defpoints
 62
     0
370
    -2
100
AcDbLine
 10
1066.289010755413
 20
585.3573385900581
 30
0.0
 11
1066.914010755413
 21
585.3573385900581
 31
0.0
  0
LINE
  5
7D1
330
6B2
100
AcDbEntity
  8
Defpoints
 62
     0
370
    -2
100
AcDbLine
 10
1065.664010755413
 20
902.8573385900582
 30
0.0
 11
1065.664010755413
 21
732.8573385900576
 31
0.0
  0
LINE
  5
7D2
330
6B2
100
AcDbEntity
  8
Defpoints
 62
     0
370
    -2
100
AcDbLine
 10
1065.664010755413
 20
592.8573385900581
 30
0.0
 11
1065.664010755413
 21
686.6073385900577
 31
0.0
  0
SOLID
  5
7D3
330
6B2
100
AcDbEntity
  8
Defpoints
 62
     0
100
AcDbTrace
 10
1064.414010755413
 20
902.8573385900582
 30
0.0
 11
1066.914010755413
 21
902.8573385900582
 31
0.0
 12
1065.664010755413
 22
910.3573385900581
 32
0.0
 13
1065.664010755413
 23
910.3573385900581
 33
0.0
  0
SOLID
  5
7D4
330
6B2
100
AcDbEntity
  8
Defpoints
 62
     0
100
AcDbTrace
 10
1064.414010755413
 20
592.8573385900581
 30
0.0
 11
1066.914010755413
 21
592.8573385900581
 31
0.0
 12
1065.664010755413
 22
585.3573385900581
 32
0.0
 13
1065.664010755413
 23
585.3573385900581
 33
0.0
  0
MTEXT
  5
7D5
330
6B2
100
AcDbEntity
  8
Defpoints
 62
     0
100
AcDbMText
 10
1065.664010755413
 20
709.7323385900578
 30
0.0
 40
7.5
 41
0.0
 46
0.0
 71
     5
 72
     1
  1
12-3/4"
 11
0.0000000000000001
 21
1.0
 31
0.0
 73
     1
 44
1.0
  0
POINT
  5
7D6
330
6B2
100
AcDbEntity
  8
Defpoints
 62
     0
100
AcDbPoint
 10
1065.664010755413
 20
910.3573385900581
 30
0.0
  0
POINT
  5
7D7
330
6B2
100
AcDbEntity
  8
Defpoints
 62
     0
100
AcDbPoint
 10
1065.664010755413
 20
585.3573385900581
 30
0.0
  0
POINT
  5
7D8
330
6B2
100
AcDbEntity
  8
Defpoints
 62
     0
100
AcDbPoint
 10
1065.664010755413
 20
585.3573385900581
 30
0.0
  0
ENDBLK
  5
6BE
330
6B2
100
AcDbEntity
  8
0
100
AcDbBlockEnd
  0
BLOCK
  5
7E6
330
7DB
100
AcDbEntity
  8
0
100
AcDbBlockBegin
  2
*D8
 70
     1
 10
0.0
 20
0.0
 30
0.0
  3
*D8
  1

  0
LINE
  5
81B
330
7DB
100
AcDbEntity
  8
Defpoints
 62
     0
370
    -2
100
AcDbLine
 10
1066.289010755413
 20
447.6528528151481
 30
0.0
 11
778.1784723233095
 21
447.6528528151482
 31
0.0
  0
LINE
  5
81C
330
7DB
100
AcDbEntity
  8
Defpoints
 62
     0
370
    -2
100
AcDbLine
 10
1066.289010755413
 20
252.6528528151487
 30
0.0
 11
778.1784723233093
 21
252.6528528151487
 31
0.0
  0
LINE
  5
81D
330
7DB
100
AcDbEntity
  8
Defpoints
 62
     0
370
    -2
100
AcDbLine
 10
779.4284723233094
 20
440.1528528151482
 30
0.0
 11
779.4284723233094
 21
370.7778528151485
 31
0.0
  0
LINE
  5
81E
330
7DB
100
AcDbEntity
  8
Defpoints
 62
     0
370
    -2
100
AcDbLine
 10
779.4284723233094
 20
260.1528528151487
 30
0.0
 11
779.4284723233094
 21
329.5278528151485
 31
0.0
  0
SOLID
  5
81F
330
7DB
100
AcDbEntity
  8
Defpoints
 62
     0
100
AcDbTrace
 10
778.1784723233095
 20
440.1528528151482
 30
0.0
 11
780.6784723233095
 21
440.1528528151482
 31
0.0
 12
779.4284723233094
 22
447.6528528151482
 32
0.0
 13
779.4284723233094
 23
447.6528528151482
 33
0.0
  0
SOLID
  5
820
330
7DB
100
AcDbEntity
  8
Defpoints
 62
     0
100
AcDbTrace
 10
778.1784723233095
 20
260.1528528151487
 30
0.0
 11
780.6784723233095
 21
260.1528528151487
 31
0.0
 12
779.4284723233094
 22
252.6528528151487
 32
0.0
 13
779.4284723233094
 23
252.6528528151487
 33
0.0
  0
MTEXT
  5
821
330
7DB
100
AcDbEntity
  8
Defpoints
 62
     0
100
AcDbMText
 10
779.4284723233094
 20
350.1528528151486
 30
0.0
 40
7.5
 41
0.0
 46
0.0
 71
     5
 72
     1
  1
7-5/8"
 11
0.0000000000000001
 21
1.0
 31
0.0
 73
     1
 44
1.0
  0
POINT
  5
822
330
7DB
100
AcDbEntity
  8
Defpoints
 62
     0
100
AcDbPoint
 10
1066.914010755413
 20
447.6528528151481
 30
0.0
  0
POINT
  5
823
330
7DB
100
AcDbEntity
  8
Defpoints
 62
     0
100
AcDbPoint
 10
1066.914010755413
 20
252.6528528151487
 30
0.0
  0
POINT
  5
824
330
7DB
100
AcDbEntity
  8
Defpoints
 62
     0
100
AcDbPoint
 10
779.4284723233094
 20
252.6528528151487
 30
0.0
  0
ENDBLK
  5
7E7
330
7DB
100
AcDbEntity
  8
0
100
AcDbBlockEnd
  0
ENDSEC
  0
SECTION
  2
ENTITIES
  0
CIRCLE
  5
144
102
{ACAD_REACTORS
330
3F1
102
}
330
1F
100
AcDbEntity
  8
CON
100
AcDbCircle
 10
1065.664010755413
 20
809.1451129574625
 30
0.0
 40
21.5
  0
LINE
  5
14B
330
1F
100
AcDbEntity
  8
CON
100
AcDbLine
 10
828.164010755413
 20
437.6528528151481
 30
0.0
 11
828.164010755413
 21
427.6528528151485
 31
0.0
  0
LINE
  5
14C
330
1F
100
AcDbEntity
  8
CON
100
AcDbLine
 10
1268.46689769546
 20
427.6528528151485
 30
0.0
 11
1303.164010755413
 21
427.6528528151485
 31
0.0
  0
LINE
  5
14D
330
1F
100
AcDbEntity
  8
CON
100
AcDbLine
 10
1303.164010755413
 20
427.6528528151485
 30
0.0
 11
1303.164010755413
 21
437.6528528151481
 31
0.0
  0
LINE
  5
161
330
1F
100
AcDbEntity
  8
CON
100
AcDbLine
 10
1027.280496828775
 20
399.3643465313041
 30
0.0
 11
1034.855767718732
 21
266.797105957071
 31
0.0
  0
LINE
  5
162
330
1F
100
AcDbEntity
  8
CON
100
AcDbLine
 10
1104.04752468205
 20
399.364346531304
 30
0.0
 11
1096.472253792094
 21
266.797105957071
 31
0.0
  0
SPLINE
  5
163
330
1F
100
AcDbEntity
  8
图层1
100
AcDbSpline
210
0.0
220
0.0
230
1.0
 70
     8
 71
     3
 72
     9
 73
     5
 74
     3
 42
0.0000000001
 43
0.0000000001
 44
0.0000000001
 40
0.0
 40
0.0
 40
0.0
 40
0.0
 40
144.6791703952807
 40
255.8650722958504
 40
255.8650722958504
 40
255.8650722958504
 40
255.8650722958504
 10
853.164010755413
 20
447.6528528151485
 30
0.0
 10
871.8011587689957
 20
398.5242551289259
 30
0.0
 10
904.7609498077157
 20
311.6403438897645
 30
0.0
 10
994.4976096730854
 20
297.0103161861969
 30
0.0
 10
1033.492582183984
 20
290.6528528151487
 30
0.0
 11
853.164010755413
 21
447.6528528151485
 31
0.0
 11
927.2289998505312
 21
323.3691461734222
 31
0.0
 11
1033.492582183984
 21
290.6528528151487
 31
0.0
  0
SPLINE
  5
166
330
1F
100
AcDbEntity
  8
CON
100
AcDbSpline
210
0.0
220
0.0
230
1.0
 70
     8
 71
     3
 72
     9
 73
     5
 74
     0
 42
0.0000000001
 43
0.0000000001
 40
7.166331171662275
 40
7.166331171662275
 40
7.166331171662275
 40
7.166331171662275
 40
121.6589587371418
 40
248.109527595313
 40
248.109527595313
 40
248.109527595313
 40
248.109527595313
 10
844.6671912489591
 20
420.0936790427902
 30
0.0
 10
860.5023727820153
 20
379.8730027277495
 30
0.0
 10
895.5152965282204
 20
297.0268496620806
 30
0.0
 10
988.7983124355756
 20
278.3432799418305
 30
0.0
 10
1034.622371215043
 20
270.881544771624
 30
0.0
  0
ARC
  5
169
330
1F
100
AcDbEntity
  8
CON
100
AcDbCircle
 10
1133.99866471477
 20
397.6528528151486
 30
0.0
 40
30.0
100
AcDbArc
 50
90.0
 51
176.7295120768164
  0
LINE
  5
16A
330
1F
100
AcDbEntity
  8
CON
100
AcDbLine
 10
828.164010755413
 20
427.6528528151485
 30
0.0
 11
862.8611238153501
 21
427.6528528151485
 31
0.0
  0
ARC
  5
16B
330
1F
100
AcDbEntity
  8
CON
100
AcDbCircle
 10
997.3293567960563
 20
397.6528528151487
 30
0.0
 40
30.0
100
AcDbArc
 50
3.270487923183618
 51
90.0
  0
ARC
  5
16C
330
1F
100
AcDbEntity
  8
CON
100
AcDbCircle
 10
838.164010755413
 20
437.6528528151481
 30
0.0
 40
10.0
100
AcDbArc
 50
90.0
 51
180.0
  0
ARC
  5
16D
330
1F
100
AcDbEntity
  8
CON
100
AcDbCircle
 10
1293.164010755413
 20
437.6528528151481
 30
0.0
 40
10.0
100
AcDbArc
 50
0.0
 51
90.0
  0
ARC
  5
170
330
1F
100
AcDbEntity
  8
CON
100
AcDbCircle
 10
1049.831337735091
 20
267.6528528151487
 30
0.0
 40
15.0
100
AcDbArc
 50
183.2704879231836
 51
270.0
  0
ARC
  5
171
330
1F
100
AcDbEntity
  8
CON
100
AcDbCircle
 10
1081.496683775735
 20
267.6528528151487
 30
0.0
 40
15.0
100
AcDbArc
 50
270.0
 51
356.7295120768164
  0
ARC
  5
172
330
1F
100
AcDbEntity
  8
CON
100
AcDbCircle
 10
834.9696468522342
 20
417.6528528151473
 30
0.0
 40
10.0
100
AcDbArc
 50
14.12762607709407
 51
90.00000000004886
  0
LINE
  5
174
330
1F
100
AcDbEntity
  8
CON
100
AcDbLine
 10
862.8611238153501
 20
427.6528528151454
 30
0.0
 11
997.3293567960563
 21
427.6528528151485
 31
0.0
  0
LINE
  5
175
330
1F
100
AcDbEntity
  8
CON
100
AcDbLine
 10
1133.99866471477
 20
427.6528528151485
 30
0.0
 11
1268.466897695459
 21
427.6528528151485
 31
0.0
  0
LINE
  5
1DF
330
1F
100
AcDbEntity
  8
CON
100
AcDbLine
 10
1049.831337735091
 20
252.6528528151487
 30
0.0
 11
1081.496683775735
 21
252.6528528151487
 31
0.0
  0
LINE
  5
1E0
330
1F
100
AcDbEntity
  8
图层1
100
AcDbLine
 10
1033.492582183984
 20
290.6528528151486
 30
0.0
 11
1097.835439326841
 21
290.6528528151486
 31
0.0
  0
DIMENSION
  5
3DC
102
{ACAD_XDICTIONARY
360
3E8
102
}
102
{ACAD_REACTORS
330
3F1
102
}
330
1F
100
AcDbEntity
  8
Defpoints
100
AcDbDimension
  2
*D1
 10
1087.16384613689
 20
809.2292471919925
 30
0.0
 11
1011.91438730199
 21
808.9347772341747
 31
0.0
 70
    35
  1
{\H1.4x;%%C1\H0.7x;\S11/16;\H1.4286x;"}
 71
     5
 42
43.00000000000022
 73
     0
 74
     0
 75
     0
  3
ISO-25
100
AcDbDiametricDimension
 15
1044.164175373937
 25
809.0609787229324
 35
0.0
 40
0.0
1001
ACAD
1000
DSTYLE
1002
{
1070
   288
1070
     1
1002
}
  0
MTEXT
  5
526
330
1F
100
AcDbEntity
  8
DIM
100
AcDbMText
 10
972.0301477719839
 20
678.9237137124569
 30
0.0
 40
7.5
 41
0.0
 46
0.0
 71
     1
 72
     1
  1

 73
     1
 44
1.0
  0
MTEXT
  5
53D
330
1F
100
AcDbEntity
  8
0
100
AcDbMText
 10
1169.239515864913
 20
669.1634516184389
 30
0.0
 40
7.5
 41
0.0
 46
0.0
 71
     9
 72
     1
  1

 73
     1
 44
1.0
  0
MTEXT
  5
53F
330
1F
100
AcDbEntity
  8
0
100
AcDbMText
 10
1178.272172382756
 20
678.5826510090998
 30
0.0
 40
7.5
 41
0.0
 46
0.0
 71
     9
 72
     1
  1

 73
     1
 44
1.0
  0
LEADER
  5
543
330
1F
100
AcDbEntity
  8
0
100
AcDbLeader
  3
ISO-25
 73
     0
 40
7.773764258555131
 41
125.361216730038
 76
     3
 10
1236.39687788969
 20
663.2235067591371
 30
0.0
 10
1222.385134663674
 20
674.7127824957313
 30
0.0
 10
1210.367600057389
 20
674.7127824957313
 30
0.0
340
544
213
0.0
223
2.5
233
0.0
1001
ACAD
1000
DSTYLE
1002
{
1070
   147
1040
0.625
1070
    77
1070
     0
1070
    41
1040
7.5
1070
    50
1040
1.570796326794896
1070
   140
1040
5.0
1002
}
  0
MTEXT
  5
544
102
{ACAD_REACTORS
330
543
102
}
330
1F
100
AcDbEntity
  8
0
100
AcDbMText
 10
1209.742600057389
 20
672.2127824957312
 30
0.0
 40
7.5
 41
0.0
 46
0.0
 71
     9
 72
     1
  1
{\fVrinda|b0|i0|c0|p34;CUT\fVrinda|b0|i0|c134|p34; \fVrinda|b0|i0|c0|p34;ALONG\fVrinda|b0|i0|c134|p34; \fVrinda|b0|i0|c0|p34;THIS\fVrinda|b0|i0|c134|p34; \fVrinda|b0|i0|c0|p34;LINE}
 73
     1
 44
1.0
  0
ELLIPSE
  5
5FD
330
1F
100
AcDbEntity
  8
CON
100
AcDbEllipse
 10
1065.664010755413
 20
747.8573385900581
 30
0.0
 11
-237.5
 21
0.0
 31
0.0
210
0.0
220
0.0
230
1.0
 40
0.8210526315789474
 41
0.0
 42
6.283185307179586
  0
ELLIPSE
  5
602
330
1F
100
AcDbEntity
  8
CON
100
AcDbEllipse
 10
1065.664010755413
 20
747.8573385900581
 30
0.0
 11
-212.5
 21
0.0
 31
0.0
210
0.0
220
0.0
230
1.0
 40
0.8117647058823528
 41
0.0
 42
6.283185307179586
  0
SPLINE
  5
607
330
1F
100
AcDbEntity
  8
图层1
100
AcDbSpline
210
0.0
220
0.0
230
1.0
 70
     8
 71
     3
 72
     9
 73
     5
 74
     3
 42
0.0000000001
 43
0.0000000001
 44
0.0000000001
 40
0.0
 40
0.0
 40
0.0
 40
0.0
 40
144.6791703952806
 40
255.8650722958504
 40
255.8650722958504
 40
255.8650722958504
 40
255.8650722958504
 10
1278.164010755413
 20
447.6528528151485
 30
0.0
 10
1259.52686274183
 20
398.5242551289259
 30
0.0
 10
1226.56707170311
 20
311.6403438897643
 30
0.0
 10
1136.830411837741
 20
297.0103161861969
 30
0.0
 10
1097.835439326842
 20
290.6528528151487
 30
0.0
 11
1278.164010755413
 21
447.6528528151485
 31
0.0
 11
1204.099021660295
 21
323.3691461734222
 31
0.0
 11
1097.835439326842
 21
290.6528528151487
 31
0.0
  0
SPLINE
  5
608
330
1F
100
AcDbEntity
  8
CON
100
AcDbSpline
210
0.0
220
0.0
230
1.0
 70
     8
 71
     3
 72
     9
 73
     5
 74
     0
 42
0.0000000001
 43
0.0000000001
 40
7.166331171662275
 40
7.166331171662275
 40
7.166331171662275
 40
7.166331171662275
 40
121.6589587371418
 40
248.109527595313
 40
248.109527595313
 40
248.109527595313
 40
248.109527595313
 10
1286.660830261867
 20
420.0936790427902
 30
0.0
 10
1270.825648728811
 20
379.8730027277495
 30
0.0
 10
1235.812724982605
 20
297.0268496620806
 30
0.0
 10
1142.52970907525
 20
278.3432799418305
 30
0.0
 10
1096.705650295783
 20
270.881544771624
 30
0.0
  0
ARC
  5
609
330
1F
100
AcDbEntity
  8
CON
100
AcDbCircle
 10
1296.358374658592
 20
417.6528528151473
 30
0.0
 40
10.0
100
AcDbArc
 50
89.99999999994789
 51
165.8723739229084
  0
LINE
  5
60B
330
1F
100
AcDbEntity
  8
CON
100
AcDbLine
 10
838.164010755413
 20
447.6528528151481
 30
0.0
 11
1293.164010755413
 21
447.6528528151481
 31
0.0
  0
ELLIPSE
  5
610
330
1F
100
AcDbEntity
  8
DASH
100
AcDbEllipse
 10
1065.664010755413
 20
747.8573385900581
 30
0.0
 11
-200.0
 21
0.0
 31
0.0
210
0.0
220
0.0
230
1.0
 40
0.8125
 41
0.0
 42
6.283185307179586
  0
DIMENSION
  5
611
330
1F
100
AcDbEntity
  8
Defpoints
100
AcDbDimension
  2
*D2
 10
1303.164010755413
 20
507.3193844983177
 30
0.0
 11
1065.664010755413
 21
507.3193844983177
 31
0.0
 70
    32
  1
18-5/8
 71
     5
 42
475.0
 73
     0
 74
     0
 75
     0
  3
ISO-25
100
AcDbAlignedDimension
 13
828.164010755413
 23
747.8573385900581
 33
0.0
 14
1303.164010755413
 24
747.8573385900581
 34
0.0
100
AcDbRotatedDimension
1001
ACAD
1000
DSTYLE
1002
{
1070
    50
1040
1.570796326794896
1002
}
  0
DIMENSION
  5
62B
330
1F
100
AcDbEntity
  8
Defpoints
100
AcDbDimension
  2
*D3
 10
1278.164010755413
 20
532.0663553143269
 30
0.0
 11
1065.664010755413
 21
532.0663553143269
 31
0.0
 70
    32
  1
16-5/8
 71
     5
 42
425.0
 73
     0
 74
     0
 75
     0
  3
ISO-25
100
AcDbAlignedDimension
 13
853.164010755413
 23
747.8573385900581
 33
0.0
 14
1278.164010755413
 24
747.8573385900581
 34
0.0
100
AcDbRotatedDimension
1001
ACAD
1000
DSTYLE
1002
{
1070
    50
1040
1.570796326794896
1002
}
  0
DIMENSION
  5
645
330
1F
100
AcDbEntity
  8
Defpoints
100
AcDbDimension
  2
*D4
 10
766.3618673722923
 20
552.8573385900582
 30
0.0
 11
766.3618673722922
 21
747.8573385900581
 31
0.0
 70
   160
  1
15-3/8"
 71
     5
 42
390.0
 73
     0
 74
     0
 75
     0
  3
ISO-25
100
AcDbAlignedDimension
 13
1065.664010755413
 23
942.857338590058
 33
0.0
 14
1065.664010755413
 24
552.8573385900581
 34
0.0
 50
90.0
100
AcDbRotatedDimension
1001
ACAD
1000
DSTYLE
1002
{
1070
    50
1040
1.570796326794896
1002
}
  0
DIMENSION
  5
65F
330
1F
100
AcDbEntity
  8
Defpoints
100
AcDbDimension
  2
*D5
 10
799.2054073507143
 20
575.3573385900581
 30
0.0
 11
799.2054073507142
 21
747.8573385900583
 31
0.0
 70
    32
  1
13-1/2"
 71
     5
 42
345.0
 73
     0
 74
     0
 75
     0
  3
ISO-25
100
AcDbAlignedDimension
 13
1065.664010755413
 23
920.3573385900581
 33
0.0
 14
1065.664010755413
 24
575.3573385900581
 34
0.0
 50
90.0
100
AcDbRotatedDimension
1001
ACAD
1000
DSTYLE
1002
{
1070
    50
1040
1.570796326794896
1002
}
  0
DIMENSION
  5
697
330
1F
100
AcDbEntity
  8
Defpoints
100
AcDbDimension
  2
*D6
 10
1265.664010755413
 20
747.8573385900581
 30
0.0
 11
1000.039010755413
 21
747.8573385900581
 31
0.0
 70
   160
  1
15-13/16"
 71
     5
 42
400.0
 73
     0
 74
     0
 75
     0
  3
ISO-25
100
AcDbAlignedDimension
 13
865.664010755413
 23
747.8573385900581
 33
0.0
 14
1265.664010755413
 24
747.8573385900581
 34
0.0
100
AcDbRotatedDimension
1001
ACAD
1000
DSTYLE
1002
{
1070
    50
1040
1.570796326794896
1002
}
  0
DIMENSION
  5
6B1
330
1F
100
AcDbEntity
  8
Defpoints
100
AcDbDimension
  2
*D7
 10
1065.664010755413
 20
585.3573385900581
 30
0.0
 11
1065.664010755413
 21
709.7323385900578
 31
0.0
 70
   160
  1
12-3/4"
 71
     5
 42
325.0
 73
     0
 74
     0
 75
     0
  3
ISO-25
100
AcDbAlignedDimension
 13
1065.664010755413
 23
910.3573385900581
 33
0.0
 14
1065.664010755413
 24
585.3573385900581
 34
0.0
 50
90.0
100
AcDbRotatedDimension
1001
ACAD
1000
DSTYLE
1002
{
1070
    50
1040
1.570796326794896
1002
}
  0
DIMENSION
  5
7DA
330
1F
100
AcDbEntity
  8
Defpoints
100
AcDbDimension
  2
*D8
 10
779.4284723233094
 20
252.6528528151487
 30
0.0
 11
779.4284723233094
 21
350.1528528151486
 31
0.0
 70
    32
  1
7-5/8"
 71
     5
 42
194.9999999999995
 73
     0
 74
     0
 75
     0
  3
ISO-25
100
AcDbAlignedDimension
 13
1066.914010755413
 23
447.6528528151481
 33
0.0
 14
1066.914010755413
 24
252.6528528151487
 34
0.0
 50
90.0
100
AcDbRotatedDimension
1001
ACAD
1000
DSTYLE
1002
{
1070
    50
1040
1.570796326794896
1002
}
  0
LINE
  5
812
330
1F
100
AcDbEntity
  8
图层1
100
AcDbLine
 10
1049.831337735091
 20
252.6528528151487
 30
0.0
 11
1049.831337735091
 21
290.6528528151485
 31
0.0
  0
LINE
  5
813
330
1F
100
AcDbEntity
  8
图层1
100
AcDbLine
 10
1081.496683775735
 20
252.6528528151487
 30
0.0
 11
1081.496683775735
 21
290.6528528151486
 31
0.0
  0
ENDSEC
  0
SECTION
  2
OBJECTS
  0
DICTIONARY
  5
C
330
0
100
AcDbDictionary
281
     1
  3
ACAD_COLOR
350
6B
  3
ACAD_GROUP
350
D
  3
ACAD_LAYOUT
350
1A
  3
ACAD_MATERIAL
350
6A
  3
ACAD_MLINESTYLE
350
17
  3
ACAD_PLOTSETTINGS
350
19
  3
ACAD_PLOTSTYLENAME
350
E
  3
ACAD_TABLESTYLE
350
7E
  3
ACAD_VISUALSTYLE
350
F0
  3
AcadDim
350
53B
  3
AcDbVariableDictionary
350
5E
  0
DICTIONARY
  5
12C
330
2
100
AcDbDictionary
280
     1
281
     1
  3
ACAD_LAYERFILTERS
360
559
  3
ACLYDICTIONARY
360
558
  0
DICTIONARY
  5
14F
330
1F
100
AcDbDictionary
280
     1
281
     1
  3
ACAD_SORTENTS
360
150
  0
DICTIONARY
  5
3E8
330
3DC
100
AcDbDictionary
280
     1
281
     1
  3
ACAD_DIMASSOC
360
3F1
  0
DICTIONARY
  5
6B
102
{ACAD_REACTORS
330
C
102
}
330
C
100
AcDbDictionary
281
     1
  0
DICTIONARY
  5
D
102
{ACAD_REACTORS
330
C
102
}
330
C
100
AcDbDictionary
281
     1
  0
DICTIONARY
  5
1A
102
{ACAD_REACTORS
330
C
102
}
330
C
100
AcDbDictionary
281
     1
  3
Model
350
22
  3
布局1
350
D3
  3
布局2
350
D7
  0
DICTIONARY
  5
6A
102
{ACAD_REACTORS
330
C
102
}
330
C
100
AcDbDictionary
281
     1
  3
ByBlock
350
EE
  3
ByLayer
350
ED
  3
Global
350
EF
  0
DICTIONARY
  5
17
102
{ACAD_REACTORS
330
C
102
}
330
C
100
AcDbDictionary
281
     1
  3
Standard
350
18
  0
DICTIONARY
  5
19
102
{ACAD_REACTORS
330
C
102
}
330
C
100
AcDbDictionary
281
     1
  0
ACDBDICTIONARYWDFLT
  5
E
102
{ACAD_REACTORS
330
C
102
}
330
C
100
AcDbDictionary
281
     1
  3
Normal
350
F
100
AcDbDictionaryWithDefault
340
F
  0
DICTIONARY
  5
7E
102
{ACAD_REACTORS
330
C
102
}
330
C
100
AcDbDictionary
281
     1
  3
Standard
350
7F
  0
DICTIONARY
  5
F0
102
{ACAD_REACTORS
330
C
102
}
330
C
100
AcDbDictionary
281
     1
  3
2dWireframe
350
F6
  3
3D Hidden
350
F8
  3
3dWireframe
350
F7
  3
Basic
350
F5
  3
Brighten
350
FC
  3
ColorChange
350
100
  3
Conceptual
350
F9
  3
Dim
350
FB
  3
Facepattern
350
FF
  3
Flat
350
F1
  3
FlatWithEdges
350
F2
  3
Gouraud
350
F3
  3
GouraudWithEdges
350
F4
  3
Linepattern
350
FE
  3
Realistic
350
FA
  3
Thicken
350
FD
  0
XRECORD
  5
53B
102
{ACAD_REACTORS
330
C
102
}
330
C
100
AcDbXrecord
280
     1
 90
   990106
  3

 60
     0
 61
     0
 62
     1
 63
     3
 64
     0
 65
     0
 66
     0
 67
     3
 68
     1
 69
     0
 70
     0
 71
     0
 72
     0
 40
0.0
170
     0
340
544
  0
DICTIONARY
  5
5E
102
{ACAD_REACTORS
330
C
102
}
330
C
100
AcDbDictionary
281
     1
  3
CTABLESTYLE
350
84
  3
DIMASSOC
350
5F
  3
HIDETEXT
350
63
  0
DICTIONARY
  5
559
102
{ACAD_REACTORS
330
12C
102
}
330
12C
100
AcDbDictionary
281
     1
  0
DICTIONARY
  5
558
102
{ACAD_REACTORS
330
12C
102
}
330
12C
100
AcDbDictionary
281
     1
1001
ACAD
1000
<All
  0
SORTENTSTABLE
  5
150
102
{ACAD_REACTORS
330
14F
102
}
330
14F
100
AcDbSortentsTable
330
1F
331
16C
  5
15A
331
602
  5
603
331
174
  5
175
331
543
  5
544
331
3DC
  5
526
331
14D
  5
163
331
16D
  5
166
331
544
  5
5F5
331
175
  5
1DF
331
166
  5
170
331
53D
  5
53F
331
5FD
  5
602
331
526
  5
53D
331
1DF
  5
1E0
331
1E0
  5
3DC
331
170
  5
168
331
53F
  5
543
331
161
  5
167
331
169
  5
162
331
171
  5
16A
331
607
  5
608
331
162
  5
169
331
16A
  5
171
331
172
  5
174
331
608
  5
609
331
14B
  5
15B
331
163
  5
16B
331
16B
  5
172
331
144
  5
144
331
609
  5
60A
331
14C
  5
161
  0
DIMASSOC
  5
3F1
102
{ACAD_REACTORS
330
3E8
102
}
330
3E8
100
AcDbDimAssoc
330
3DC
 90
        2
 70
     0
 71
     0
  1
AcDbOsnapPointRef
 72
     3
331
144
 73
     2
 91
        0
 40
0.0
 10
0.0
 20
0.0
 30
0.0
 75
     0
  0
LAYOUT
  5
22
102
{ACAD_REACTORS
330
1A
102
}
330
1A
100
AcDbPlotSettings
  1

  2
none_device
  4
ISO_A4_(210.00_x_297.00_MM)
  6

 40
7.5
 41
20.0
 42
7.5
 43
20.0
 44
210.0
 45
297.0
 46
11.54999923706054
 47
-13.65000009536743
 48
0.0
 49
0.0
140
0.0
141
0.0
142
1.0
143
8.704084754739808
 70
 11952
 72
     1
 73
     0
 74
     0
  7

 75
     0
147
0.1148885871608098
 76
     0
 77
     2
 78
   300
148
0.0
149
0.0
100
AcDbLayout
  1
Model
 70
     1
 71
     0
 10
0.0
 20
0.0
 11
12.0
 21
9.0
 12
0.0
 22
0.0
 32
0.0
 14
0.0
 24
0.0
 34
0.0
 15
0.0
 25
0.0
 35
0.0
146
0.0
 13
0.0
 23
0.0
 33
0.0
 16
1.0
 26
0.0
 36
0.0
 17
0.0
 27
1.0
 37
0.0
 76
     0
330
1F
331
EB
1001
ACAD_PSEXT
1000
None
1000
None
1000
Not applicable
1000
The layout will not be plotted unless a new plotter configuration name is selected.
1070
     0
  0
LAYOUT
  5
D3
102
{ACAD_REACTORS
330
1A
102
}
330
1A
100
AcDbPlotSettings
  1

  2
C:\Documents and Settings\basas\Application Data\Autodesk\AutoCAD 2005\R16.1\enu\plotters\Default Windows System Printer.pc3
  4

  6

 40
0.0
 41
0.0
 42
0.0
 43
0.0
 44
0.0
 45
0.0
 46
0.0
 47
0.0
 48
0.0
 49
0.0
140
0.0
141
0.0
142
1.0
143
1.0
 70
   688
 72
     0
 73
     0
 74
     5
  7

 75
    16
147
1.0
 76
     0
 77
     2
 78
   300
148
0.0
149
0.0
100
AcDbLayout
  1
布局1
 70
     1
 71
     1
 10
0.0
 20
0.0
 11
12.0
 21
9.0
 12
0.0
 22
0.0
 32
0.0
 14
0.0
 24
0.0
 34
0.0
 15
0.0
 25
0.0
 35
0.0
146
0.0
 13
0.0
 23
0.0
 33
0.0
 16
1.0
 26
0.0
 36
0.0
 17
0.0
 27
1.0
 37
0.0
 76
     0
330
D2
  0
LAYOUT
  5
D7
102
{ACAD_REACTORS
330
1A
102
}
330
1A
100
AcDbPlotSettings
  1

  2
C:\Documents and Settings\basas\Application Data\Autodesk\AutoCAD 2005\R16.1\enu\plotters\Default Windows System Printer.pc3
  4

  6

 40
0.0
 41
0.0
 42
0.0
 43
0.0
 44
0.0
 45
0.0
 46
0.0
 47
0.0
 48
0.0
 49
0.0
140
0.0
141
0.0
142
1.0
143
1.0
 70
   688
 72
     0
 73
     0
 74
     5
  7

 75
    16
147
1.0
 76
     0
 77
     2
 78
   300
148
0.0
149
0.0
100
AcDbLayout
  1
布局2
 70
     1
 71
     2
 10
0.0
 20
0.0
 11
12.0
 21
9.0
 12
0.0
 22
0.0
 32
0.0
 14
0.0
 24
0.0
 34
0.0
 15
0.0
 25
0.0
 35
0.0
146
0.0
 13
0.0
 23
0.0
 33
0.0
 16
1.0
 26
0.0
 36
0.0
 17
0.0
 27
1.0
 37
0.0
 76
     0
330
D6
  0
MATERIAL
  5
EE
102
{ACAD_REACTORS
330
6A
102
}
330
6A
100
AcDbMaterial
  1
ByBlock
  0
MATERIAL
  5
ED
102
{ACAD_REACTORS
330
6A
102
}
330
6A
100
AcDbMaterial
  1
ByLayer
  0
MATERIAL
  5
EF
102
{ACAD_REACTORS
330
6A
102
}
330
6A
100
AcDbMaterial
  1
Global
  0
MLINESTYLE
  5
18
102
{ACAD_REACTORS
330
17
102
}
330
17
100
AcDbMlineStyle
  2
STANDARD
 70
     0
  3

 62
   256
 51
90.0
 52
90.0
 71
     2
 49
0.5
 62
   256
  6
BYLAYER
 49
-0.5
 62
   256
  6
BYLAYER
  0
ACDBPLACEHOLDER
  5
F
102
{ACAD_REACTORS
330
E
102
}
330
E
  0
TABLESTYLE
  5
7F
102
{ACAD_REACTORS
330
7E
102
}
330
7E
100
AcDbTableStyle
  3
Standard
 70
     0
 71
     0
 40
1.5
 41
1.5
280
     0
281
     0
  7
Standard
140
4.5
170
     2
 62
     0
 63
     7
283
     0
 90
      512
 91
        0
  1

274
    -2
284
     1
 64
     0
275
    -2
285
     1
 65
     0
276
    -2
286
     1
 66
     0
277
    -2
287
     1
 67
     0
278
    -2
288
     1
 68
     0
279
    -2
289
     1
 69
     0
  7
Standard
140
6.0
170
     5
 62
     0
 63
     7
283
     0
 90
      512
 91
        0
  1

274
    -2
284
     1
 64
     0
275
    -2
285
     1
 65
     0
276
    -2
286
     1
 66
     0
277
    -2
287
     1
 67
     0
278
    -2
288
     1
 68
     0
279
    -2
289
     1
 69
     0
  7
Standard
140
4.5
170
     5
 62
     0
 63
     7
283
     0
 90
      512
 91
        0
  1

274
    -2
284
     1
 64
     0
275
    -2
285
     1
 65
     0
276
    -2
286
     1
 66
     0
277
    -2
287
     1
 67
     0
278
    -2
288
     1
 68
     0
279
    -2
289
     1
 69
     0
  0
VISUALSTYLE
  5
F6
102
{ACAD_REACTORS
330
F0
102
}
330
F0
100
AcDbVisualStyle
  2
2dWireframe
 70
     4
 71
     0
 72
     2
 73
     1
 90
        0
 40
-0.6
 41
-30.0
 62
     5
 63
     7
421
 16777215
 74
     1
 91
        4
 64
     7
 65
   257
 75
     1
175
     1
 42
1.0
 92
        0
 66
   257
 43
1.0
 76
     1
 77
     6
 78
     2
 67
     7
 79
     5
170
     0
171
     0
290
     0
174
     0
 93
        1
 44
0.0
173
     0
291
     0
 45
0.0
  0
VISUALSTYLE
  5
F8
102
{ACAD_REACTORS
330
F0
102
}
330
F0
100
AcDbVisualStyle
  2
3D Hidden
 70
     6
 71
     1
 72
     2
 73
     2
 90
        0
 40
-0.6
 41
-30.0
 62
     5
 63
     7
421
 16777215
 74
     2
 91
        2
 64
     7
 65
   257
 75
     2
175
     1
 42
40.0
 92
        0
 66
   257
 43
1.0
 76
     1
 77
     6
 78
     2
 67
     7
 79
     3
170
     0
171
     0
290
     0
174
     0
 93
        1
 44
0.0
173
     0
291
     0
 45
0.0
  0
VISUALSTYLE
  5
F7
102
{ACAD_REACTORS
330
F0
102
}
330
F0
100
AcDbVisualStyle
  2
3dWireframe
 70
     5
 71
     0
 72
     2
 73
     1
 90
        0
 40
-0.6
 41
-30.0
 62
     5
 63
     7
421
 16777215
 74
     1
 91
        4
 64
     7
 65
   257
 75
     1
175
     1
 42
1.0
 92
        0
 66
   257
 43
1.0
 76
     1
 77
     6
 78
     2
 67
     7
 79
     5
170
     0
171
     0
290
     0
174
     0
 93
        1
 44
0.0
173
     0
291
     0
 45
0.0
  0
VISUALSTYLE
  5
F5
102
{ACAD_REACTORS
330
F0
102
}
330
F0
100
AcDbVisualStyle
  2
Basic
 70
     7
 71
     1
 72
     0
 73
     1
 90
        0
 40
-0.6
 41
-30.0
 62
     5
 63
     7
421
 16777215
 74
     0
 91
        4
 64
     7
 65
   257
 75
     1
175
     1
 42
1.0
 92
        8
 66
     7
 43
1.0
 76
     1
 77
     6
 78
     2
 67
     7
 79
     5
170
     0
171
     0
290
     0
174
     0
 93
        1
 44
0.0
173
     0
291
     1
 45
0.0
  0
VISUALSTYLE
  5
FC
102
{ACAD_REACTORS
330
F0
102
}
330
F0
100
AcDbVisualStyle
  2
Brighten
 70
    12
 71
     2
 72
     2
 73
     1
 90
        0
 40
-0.6
 41
-30.0
 62
     5
 63
     7
421
 16777215
 74
     1
 91
        4
 64
     7
 65
   257
 75
     1
175
     1
 42
1.0
 92
        8
 66
     7
 43
1.0
 76
     1
 77
     6
 78
     2
 67
     7
 79
     5
170
     0
171
     0
290
     0
174
     0
 93
        1
 44
50.0
173
     0
291
     1
 45
0.0
  0
VISUALSTYLE
  5
100
102
{ACAD_REACTORS
330
F0
102
}
330
F0
100
AcDbVisualStyle
  2
ColorChange
 70
    16
 71
     2
 72
     2
 73
     3
 90
        0
 40
-0.6
 41
-30.0
 62
     5
 63
     8
421
  8421504
 74
     1
 91
        4
 64
     7
 65
   257
 75
     1
175
     1
 42
1.0
 92
        8
 66
     8
424
  8421504
 43
1.0
 76
     1
 77
     6
 78
     2
 67
     7
 79
     5
170
     0
171
     0
290
     0
174
     0
 93
        1
 44
0.0
173
     0
291
     1
 45
0.0
  0
VISUALSTYLE
  5
F9
102
{ACAD_REACTORS
330
F0
102
}
330
F0
100
AcDbVisualStyle
  2
Conceptual
 70
     9
 71
     3
 72
     2
 73
     1
 90
        0
 40
-0.6
 41
-30.0
 62
     5
 63
     7
421
 16777215
 74
     2
 91
        2
 64
     7
 65
   257
 75
     1
175
     1
 42
40.0
 92
        8
 66
     7
 43
1.0
 76
     1
 77
     6
 78
     2
 67
     7
 79
     3
170
     0
171
     0
290
     0
174
     0
 93
        1
 44
0.0
173
     0
291
     0
 45
0.0
  0
VISUALSTYLE
  5
FB
102
{ACAD_REACTORS
330
F0
102
}
330
F0
100
AcDbVisualStyle
  2
Dim
 70
    11
 71
     2
 72
     2
 73
     1
 90
        0
 40
-0.6
 41
-30.0
 62
     5
 63
     7
421
 16777215
 74
     1
 91
        4
 64
     7
 65
   257
 75
     1
175
     1
 42
1.0
 92
        8
 66
     7
 43
1.0
 76
     1
 77
     6
 78
     2
 67
     7
 79
     5
170
     0
171
     0
290
     0
174
     0
 93
        1
 44
-50.0
173
     0
291
     1
 45
0.0
  0
VISUALSTYLE
  5
FF
102
{ACAD_REACTORS
330
F0
102
}
330
F0
100
AcDbVisualStyle
  2
Facepattern
 70
    15
 71
     2
 72
     2
 73
     1
 90
        0
 40
-0.6
 41
-30.0
 62
     5
 63
     7
421
 16777215
 74
     1
 91
        4
 64
     7
 65
   257
 75
     1
175
     1
 42
1.0
 92
        8
 66
     7
 43
1.0
 76
     1
 77
     6
 78
     2
 67
     7
 79
     5
170
     0
171
     0
290
     0
174
     0
 93
        1
 44
0.0
173
     0
291
     1
 45
0.0
  0
VISUALSTYLE
  5
F1
102
{ACAD_REACTORS
330
F0
102
}
330
F0
100
AcDbVisualStyle
  2
Flat
 70
     0
 71
     2
 72
     1
 73
     1
 90
        2
 40
-0.6
 41
30.0
 62
     5
 63
     7
421
 16777215
 74
     0
 91
        4
 64
     7
 65
   257
 75
     1
175
     1
 42
1.0
 92
        8
 66
     7
 43
1.0
 76
     1
 77
     6
 78
     2
 67
     7
 79
     5
170
     0
171
     0
290
     0
174
     0
 93
        1
 44
0.0
173
     0
291
     1
 45
0.0
  0
VISUALSTYLE
  5
F2
102
{ACAD_REACTORS
330
F0
102
}
330
F0
100
AcDbVisualStyle
  2
FlatWithEdges
 70
     1
 71
     2
 72
     1
 73
     1
 90
        2
 40
-0.6
 41
30.0
 62
     5
 63
     7
421
 16777215
 74
     1
 91
        4
 64
     7
 65
   257
 75
     1
175
     1
 42
1.0
 92
        0
 66
   257
 43
1.0
 76
     1
 77
     6
 78
     2
 67
     7
 79
     5
170
     0
171
     0
290
     0
174
     0
 93
        1
 44
0.0
173
     0
291
     1
 45
0.0
  0
VISUALSTYLE
  5
F3
102
{ACAD_REACTORS
330
F0
102
}
330
F0
100
AcDbVisualStyle
  2
Gouraud
 70
     2
 71
     2
 72
     2
 73
     1
 90
        2
 40
-0.6
 41
30.0
 62
     5
 63
     7
421
 16777215
 74
     0
 91
        4
 64
     7
 65
   257
 75
     1
175
     1
 42
1.0
 92
        0
 66
     7
 43
1.0
 76
     1
 77
     6
 78
     2
 67
     7
 79
     5
170
     0
171
     0
290
     0
174
     0
 93
        1
 44
0.0
173
     0
291
     1
 45
0.0
  0
VISUALSTYLE
  5
F4
102
{ACAD_REACTORS
330
F0
102
}
330
F0
100
AcDbVisualStyle
  2
GouraudWithEdges
 70
     3
 71
     2
 72
     2
 73
     1
 90
        2
 40
-0.6
 41
30.0
 62
     5
 63
     7
421
 16777215
 74
     1
 91
        4
 64
     7
 65
   257
 75
     1
175
     1
 42
1.0
 92
        0
 66
   257
 43
1.0
 76
     1
 77
     6
 78
     2
 67
     7
 79
     5
170
     0
171
     0
290
     0
174
     0
 93
        1
 44
0.0
173
     0
291
     1
 45
0.0
  0
VISUALSTYLE
  5
FE
102
{ACAD_REACTORS
330
F0
102
}
330
F0
100
AcDbVisualStyle
  2
Linepattern
 70
    14
 71
     2
 72
     2
 73
     1
 90
        0
 40
-0.6
 41
-30.0
 62
     5
 63
     7
421
 16777215
 74
     1
 91
        4
 64
     7
 65
   257
 75
     7
175
     7
 42
1.0
 92
        8
 66
     7
 43
1.0
 76
     1
 77
     6
 78
     2
 67
     7
 79
     5
170
     0
171
     0
290
     0
174
     0
 93
        1
 44
0.0
173
     0
291
     1
 45
0.0
  0
VISUALSTYLE
  5
FA
102
{ACAD_REACTORS
330
F0
102
}
330
F0
100
AcDbVisualStyle
  2
Realistic
 70
     8
 71
     2
 72
     2
 73
     1
 90
        0
 40
-0.6
 41
-30.0
 62
     5
 63
     7
421
 16777215
 74
     1
 91
        0
 64
     7
 65
   257
 75
     1
175
     1
 42
1.0
 92
        8
 66
     8
424
  7895160
 43
1.0
 76
     1
 77
     6
 78
     2
 67
     7
 79
     5
170
     0
171
     0
290
     0
174
     0
 93
       13
 44
0.0
173
     0
291
     0
 45
0.0
  0
VISUALSTYLE
  5
FD
102
{ACAD_REACTORS
330
F0
102
}
330
F0
100
AcDbVisualStyle
  2
Thicken
 70
    13
 71
     2
 72
     2
 73
     1
 90
        0
 40
-0.6
 41
-30.0
 62
     5
 63
     7
421
 16777215
 74
     1
 91
        4
 64
     7
 65
   257
 75
     1
175
     1
 42
1.0
 92
       12
 66
     7
 43
1.0
 76
     1
 77
     6
 78
     2
 67
     7
 79
     5
170
     0
171
     0
290
     0
174
     0
 93
        1
 44
0.0
173
     0
291
     1
 45
0.0
  0
DICTIONARYVAR
  5
84
102
{ACAD_REACTORS
330
5E
102
}
330
5E
100
DictionaryVariables
280
     0
  1
STANDARD
  0
DICTIONARYVAR
  5
5F
102
{ACAD_REACTORS
330
5E
102
}
330
5E
100
DictionaryVariables
280
     0
  1
2
  0
DICTIONARYVAR
  5
63
102
{ACAD_REACTORS
330
5E
102
}
330
5E
100
DictionaryVariables
280
     0
  1
1
  0
ENDSEC
  0
EOF
