  0
SECTION
  2
HEADER
  9
$ACADVER
  1
AC1021
  9
$ACADMAINTVER
 70
     1
  9
$DWGCODEPAGE
  3
ANSI_936
  9
$LASTSAVEDBY
  1
Administrator
  9
$INSBASE
 10
0.0
 20
0.0
 30
0.0
  9
$EXTMIN
 10
499.3718193404645
 20
497.456027088114
 30
0.0
  9
$EXTMAX
 10
1124.837542900282
 20
1162.849304385498
 30
0.0
  9
$LIMMIN
 10
0.0
 20
0.0
  9
$LIMMAX
 10
420.0
 20
297.0
  9
$ORTHOMODE
 70
     1
  9
$REGENMODE
 70
     1
  9
$FILLMODE
 70
     1
  9
$QTEXTMODE
 70
     0
  9
$MIRRTEXT
 70
     0
  9
$LTSCALE
 40
1.0
  9
$ATTMODE
 70
     1
  9
$TEXTSIZE
 40
2.5
  9
$TRACEWID
 40
1.0
  9
$TEXTSTYLE
  7
Standard
  9
$CLAYER
  8
dim
  9
$CELTYPE
  6
ByLayer
  9
$CECOLOR
 62
   256
  9
$CELTSCALE
 40
1.0
  9
$DISPSILH
 70
     0
  9
$DIMSCALE
 40
1.0
  9
$DIMASZ
 40
7.5
  9
$DIMEXO
 40
0.625
  9
$DIMDLI
 40
3.75
  9
$DIMRND
 40
0.0
  9
$DIMDLE
 40
0.0
  9
$DIMEXE
 40
1.25
  9
$DIMTP
 40
0.0
  9
$DIMTM
 40
0.0
  9
$DIMTXT
 40
7.5
  9
$DIMCEN
 40
2.5
  9
$DIMTSZ
 40
0.0
  9
$DIMTOL
 70
     0
  9
$DIMLIM
 70
     0
  9
$DIMTIH
 70
     0
  9
$DIMTOH
 70
     0
  9
$DIMSE1
 70
     0
  9
$DIMSE2
 70
     0
  9
$DIMTAD
 70
     0
  9
$DIMZIN
 70
     8
  9
$DIMBLK
  1

  9
$DIMASO
 70
     1
  9
$DIMSHO
 70
     1
  9
$DIMPOST
  1

  9
$DIMAPOST
  1

  9
$DIMALT
 70
     0
  9
$DIMALTD
 70
     3
  9
$DIMALTF
 40
0.03937007874016
  9
$DIMLFAC
 40
1.0
  9
$DIMTOFL
 70
     1
  9
$DIMTVP
 40
0.0
  9
$DIMTIX
 70
     0
  9
$DIMSOXD
 70
     0
  9
$DIMSAH
 70
     0
  9
$DIMBLK1
  1

  9
$DIMBLK2
  1

  9
$DIMSTYLE
  2
ISO-25
  9
$DIMCLRD
 70
     0
  9
$DIMCLRE
 70
     0
  9
$DIMCLRT
 70
     0
  9
$DIMTFAC
 40
1.0
  9
$DIMGAP
 40
0.625
  9
$DIMJUST
 70
     0
  9
$DIMSD1
 70
     0
  9
$DIMSD2
 70
     0
  9
$DIMTOLJ
 70
     0
  9
$DIMTZIN
 70
     8
  9
$DIMALTZ
 70
     0
  9
$DIMALTTZ
 70
     0
  9
$DIMUPT
 70
     0
  9
$DIMDEC
 70
     2
  9
$DIMTDEC
 70
     2
  9
$DIMALTU
 70
     2
  9
$DIMALTTD
 70
     3
  9
$DIMTXSTY
  7
Standard
  9
$DIMAUNIT
 70
     0
  9
$DIMADEC
 70
     0
  9
$DIMALTRND
 40
0.0
  9
$DIMAZIN
 70
     0
  9
$DIMDSEP
 70
    44
  9
$DIMATFIT
 70
     3
  9
$DIMFRAC
 70
     0
  9
$DIMLDRBLK
  1

  9
$DIMLUNIT
 70
     2
  9
$DIMLWD
 70
    -2
  9
$DIMLWE
 70
    -2
  9
$DIMTMOVE
 70
     0
  9
$DIMFXL
 40
1.0
  9
$DIMFXLON
 70
     0
  9
$DIMJOGANG
 40
0.7853981633974483
  9
$DIMTFILL
 70
     0
  9
$DIMTFILLCLR
 70
     0
  9
$DIMARCSYM
 70
     0
  9
$DIMLTYPE
  6

  9
$DIMLTEX1
  6

  9
$DIMLTEX2
  6

  9
$LUNITS
 70
     2
  9
$LUPREC
 70
     4
  9
$SKETCHINC
 40
1.0
  9
$FILLETRAD
 40
10.0
  9
$AUNITS
 70
     0
  9
$AUPREC
 70
     0
  9
$MENU
  1
.
  9
$ELEVATION
 40
0.0
  9
$PELEVATION
 40
0.0
  9
$THICKNESS
 40
0.0
  9
$LIMCHECK
 70
     0
  9
$CHAMFERA
 40
0.0
  9
$CHAMFERB
 40
0.0
  9
$CHAMFERC
 40
0.0
  9
$CHAMFERD
 40
0.0
  9
$SKPOLY
 70
     0
  9
$TDCREATE
 40
2458246.405100845
  9
$TDUCREATE
 40
2458246.071767512
  9
$TDUPDATE
 40
2458854.650293877
  9
$TDUUPDATE
 40
2458854.316960544
  9
$TDINDWG
 40
0.2817076273
  9
$TDUSRTIMER
 40
0.2817059028
  9
$USRTIMER
 70
     1
  9
$ANGBASE
 50
0.0
  9
$ANGDIR
 70
     0
  9
$PDMODE
 70
     0
  9
$PDSIZE
 40
0.0
  9
$PLINEWID
 40
0.0
  9
$SPLFRAME
 70
     0
  9
$SPLINETYPE
 70
     6
  9
$SPLINESEGS
 70
     8
  9
$HANDSEED
  5
FF2
  9
$SURFTAB1
 70
     6
  9
$SURFTAB2
 70
     6
  9
$SURFTYPE
 70
     6
  9
$SURFU
 70
     6
  9
$SURFV
 70
     6
  9
$UCSBASE
  2

  9
$UCSNAME
  2

  9
$UCSORG
 10
0.0
 20
0.0
 30
0.0
  9
$UCSXDIR
 10
1.0
 20
0.0
 30
0.0
  9
$UCSYDIR
 10
0.0
 20
1.0
 30
0.0
  9
$UCSORTHOREF
  2

  9
$UCSORTHOVIEW
 70
     0
  9
$UCSORGTOP
 10
0.0
 20
0.0
 30
0.0
  9
$UCSORGBOTTOM
 10
0.0
 20
0.0
 30
0.0
  9
$UCSORGLEFT
 10
0.0
 20
0.0
 30
0.0
  9
$UCSORGRIGHT
 10
0.0
 20
0.0
 30
0.0
  9
$UCSORGFRONT
 10
0.0
 20
0.0
 30
0.0
  9
$UCSORGBACK
 10
0.0
 20
0.0
 30
0.0
  9
$PUCSBASE
  2

  9
$PUCSNAME
  2

  9
$PUCSORG
 10
0.0
 20
0.0
 30
0.0
  9
$PUCSXDIR
 10
1.0
 20
0.0
 30
0.0
  9
$PUCSYDIR
 10
0.0
 20
1.0
 30
0.0
  9
$PUCSORTHOREF
  2

  9
$PUCSORTHOVIEW
 70
     0
  9
$PUCSORGTOP
 10
0.0
 20
0.0
 30
0.0
  9
$PUCSORGBOTTOM
 10
0.0
 20
0.0
 30
0.0
  9
$PUCSORGLEFT
 10
0.0
 20
0.0
 30
0.0
  9
$PUCSORGRIGHT
 10
0.0
 20
0.0
 30
0.0
  9
$PUCSORGFRONT
 10
0.0
 20
0.0
 30
0.0
  9
$PUCSORGBACK
 10
0.0
 20
0.0
 30
0.0
  9
$USERI1
 70
     0
  9
$USERI2
 70
     0
  9
$USERI3
 70
     0
  9
$USERI4
 70
     0
  9
$USERI5
 70
     0
  9
$USERR1
 40
0.0
  9
$USERR2
 40
0.0
  9
$USERR3
 40
0.0
  9
$USERR4
 40
0.0
  9
$USERR5
 40
0.0
  9
$WORLDVIEW
 70
     1
  9
$SHADEDGE
 70
     3
  9
$SHADEDIF
 70
    70
  9
$TILEMODE
 70
     1
  9
$MAXACTVP
 70
    64
  9
$PINSBASE
 10
0.0
 20
0.0
 30
0.0
  9
$PLIMCHECK
 70
     0
  9
$PEXTMIN
 10
0.0
 20
0.0
 30
0.0
  9
$PEXTMAX
 10
0.0
 20
0.0
 30
0.0
  9
$PLIMMIN
 10
0.0
 20
0.0
  9
$PLIMMAX
 10
12.0
 20
9.0
  9
$UNITMODE
 70
     0
  9
$VISRETAIN
 70
     1
  9
$PLINEGEN
 70
     0
  9
$PSLTSCALE
 70
     1
  9
$TREEDEPTH
 70
  3020
  9
$CMLSTYLE
  2
Standard
  9
$CMLJUST
 70
     0
  9
$CMLSCALE
 40
20.0
  9
$PROXYGRAPHICS
 70
     1
  9
$MEASUREMENT
 70
     1
  9
$CELWEIGHT
370
    -1
  9
$ENDCAPS
280
     0
  9
$JOINSTYLE
280
     0
  9
$LWDISPLAY
290
     1
  9
$INSUNITS
 70
     4
  9
$HYPERLINKBASE
  1

  9
$STYLESHEET
  1

  9
$XEDIT
290
     1
  9
$CEPSNTYPE
380
     0
  9
$PSTYLEMODE
290
     1
  9
$FINGERPRINTGUID
  2
{B9AE200B-F021-428B-955F-141660E60FC2}
  9
$VERSIONGUID
  2
{5D2E246C-459A-42C8-989E-179BFB538C66}
  9
$EXTNAMES
290
     1
  9
$PSVPSCALE
 40
0.0
  9
$OLESTARTUP
290
     0
  9
$SORTENTS
280
   127
  9
$INDEXCTL
280
     0
  9
$HIDETEXT
280
     1
  9
$XCLIPFRAME
290
     0
  9
$HALOGAP
280
     0
  9
$OBSCOLOR
 70
   257
  9
$OBSLTYPE
280
     0
  9
$INTERSECTIONDISPLAY
280
     0
  9
$INTERSECTIONCOLOR
 70
   257
  9
$DIMASSOC
280
     2
  9
$PROJECTNAME
  1

  9
$CAMERADISPLAY
290
     0
  9
$LENSLENGTH
 40
50.0
  9
$CAMERAHEIGHT
 40
0.0
  9
$STEPSPERSEC
 40
2.0
  9
$STEPSIZE
 40
6.0
  9
$3DDWFPREC
 40
2.0
  9
$PSOLWIDTH
 40
5.0
  9
$PSOLHEIGHT
 40
80.0
  9
$LOFTANG1
 40
1.570796326794896
  9
$LOFTANG2
 40
1.570796326794896
  9
$LOFTMAG1
 40
0.0
  9
$LOFTMAG2
 40
0.0
  9
$LOFTPARAM
 70
     7
  9
$LOFTNORMALS
280
     1
  9
$LATITUDE
 40
37.795
  9
$LONGITUDE
 40
-122.394
  9
$NORTHDIRECTION
 40
0.0
  9
$TIMEZONE
 70
 -8000
  9
$LIGHTGLYPHDISPLAY
280
     1
  9
$TILEMODELIGHTSYNCH
280
     1
  9
$CMATERIAL
347
ED
  9
$SOLIDHIST
280
     1
  9
$SHOWHIST
280
     1
  9
$DWFFRAME
280
     2
  9
$DGNFRAME
280
     0
  9
$REALWORLDSCALE
290
     1
  9
$INTERFERECOLOR
 62
     1
  9
$INTERFEREOBJVS
345
FA
  9
$INTERFEREVPVS
346
F7
  9
$CSHADOW
280
     0
  9
$SHADOWPLANELOCATION
 40
0.0
  0
ENDSEC
  0
SECTION
  2
CLASSES
  0
CLASS
  1
ACDBDICTIONARYWDFLT
  2
AcDbDictionaryWithDefault
  3
ObjectDBX Classes
 90
        0
 91
        1
280
     0
281
     0
  0
CLASS
  1
DICTIONARYVAR
  2
AcDbDictionaryVar
  3
ObjectDBX Classes
 90
        0
 91
        3
280
     0
281
     0
  0
CLASS
  1
TABLESTYLE
  2
AcDbTableStyle
  3
ObjectDBX Classes
 90
     4095
 91
        1
280
     0
281
     0
  0
CLASS
  1
MATERIAL
  2
AcDbMaterial
  3
ObjectDBX Classes
 90
     1024
 91
        3
280
     0
281
     0
  0
CLASS
  1
VISUALSTYLE
  2
AcDbVisualStyle
  3
ObjectDBX Classes
 90
     4095
 91
       16
280
     0
281
     0
  0
CLASS
  1
SORTENTSTABLE
  2
AcDbSortentsTable
  3
ObjectDBX Classes
 90
        0
 91
        1
280
     0
281
     0
  0
CLASS
  1
DIMASSOC
  2
AcDbDimAssoc
  3
"AcDbDimAssoc|Product Desc:     AcDim ARX App For Dimension|Company:          Autodesk, Inc.|WEB Address:      www.autodesk.com"
 90
        0
 91
        6
280
     0
281
     0
  0
ENDSEC
  0
SECTION
  2
TABLES
  0
TABLE
  2
VPORT
  5
8
330
0
100
AcDbSymbolTable
 70
     1
  0
VPORT
  5
EB
330
8
100
AcDbSymbolTableRecord
100
AcDbViewportTableRecord
  2
*Active
 70
     0
 10
0.0
 20
0.0
 11
1.0
 21
1.0
 12
879.3043094977271
 22
952.4443951119508
 13
0.0
 23
0.0
 14
10.0
 24
10.0
 15
10.0
 25
10.0
 16
0.0
 26
0.0
 36
1.0
 17
0.0
 27
0.0
 37
0.0
 40
490.555507140924
 41
2.223150357995226
 42
50.0
 43
0.0
 44
0.0
 50
0.0
 51
0.0
 71
     0
 72
  1000
 73
     1
 74
     3
 75
     0
 76
     0
 77
     0
 78
     0
281
     0
 65
     1
110
0.0
120
0.0
130
0.0
111
1.0
121
0.0
131
0.0
112
0.0
122
1.0
132
0.0
 79
     0
146
0.0
348
F6
 60
     2
 61
     5
292
     1
282
     1
141
0.0
142
0.0
 63
   250
421
  3355443
  0
ENDTAB
  0
TABLE
  2
LTYPE
  5
5
330
0
100
AcDbSymbolTable
 70
     3
  0
LTYPE
  5
14
330
5
100
AcDbSymbolTableRecord
100
AcDbLinetypeTableRecord
  2
ByBlock
 70
     0
  3

 72
    65
 73
     0
 40
0.0
  0
LTYPE
  5
15
330
5
100
AcDbSymbolTableRecord
100
AcDbLinetypeTableRecord
  2
ByLayer
 70
     0
  3

 72
    65
 73
     0
 40
0.0
  0
LTYPE
  5
16
330
5
100
AcDbSymbolTableRecord
100
AcDbLinetypeTableRecord
  2
Continuous
 70
     0
  3
Solid line
 72
    65
 73
     0
 40
0.0
  0
LTYPE
  5
12A
330
5
100
AcDbSymbolTableRecord
100
AcDbLinetypeTableRecord
  2
ACAD_ISO02W100
 70
     0
  3
ISO dash __ __ __ __ __ __ __ __ __ __ __ __ __
 72
    65
 73
     2
 40
15.0
 49
12.0
 74
     0
 49
-3.0
 74
     0
  0
LTYPE
  5
12B
330
5
100
AcDbSymbolTableRecord
100
AcDbLinetypeTableRecord
  2
ACAD_ISO04W100
 70
     0
  3
ISO long-dash dot ____ . ____ . ____ . ____ . _
 72
    65
 73
     4
 40
30.0
 49
24.0
 74
     0
 49
-3.0
 74
     0
 49
0.0
 74
     0
 49
-3.0
 74
     0
  0
ENDTAB
  0
TABLE
  2
LAYER
  5
2
102
{ACAD_XDICTIONARY
360
12C
102
}
330
0
100
AcDbSymbolTable
 70
     7
  0
LAYER
  5
10
330
2
100
AcDbSymbolTableRecord
100
AcDbLayerTableRecord
  2
0
 70
     0
 62
     7
  6
Continuous
370
    -3
390
F
347
EF
  0
LAYER
  5
123
330
2
100
AcDbSymbolTableRecord
100
AcDbLayerTableRecord
  2
dim
 70
     0
 62
     7
  6
Continuous
370
    -3
390
F
347
EF
1001
AcAecLayerStandard
1000

1000

  0
LAYER
  5
125
330
2
100
AcDbSymbolTableRecord
100
AcDbLayerTableRecord
  2
dash
 70
     0
 62
     6
  6
ACAD_ISO02W100
370
    -3
390
F
347
EF
1001
AcAecLayerStandard
1000

1000

  0
LAYER
  5
126
330
2
100
AcDbSymbolTableRecord
100
AcDbLayerTableRecord
  2
center
 70
     0
 62
     1
  6
ACAD_ISO04W100
370
    -3
390
F
347
EF
1001
AcAecLayerStandard
1000

1000

  0
LAYER
  5
127
330
2
100
AcDbSymbolTableRecord
100
AcDbLayerTableRecord
  2
con
 70
     0
 62
     7
  6
Continuous
370
    30
390
F
347
EF
1001
AcAecLayerStandard
1000

1000

  0
LAYER
  5
19F
330
2
100
AcDbSymbolTableRecord
100
AcDbLayerTableRecord
  2
Defpoints
 70
     0
 62
     7
  6
Continuous
290
     0
370
    -3
390
F
347
EF
  0
LAYER
  5
608
330
2
100
AcDbSymbolTableRecord
100
AcDbLayerTableRecord
  2
图层1
 70
     0
 62
     7
  6
ACAD_ISO02W100
370
    -3
390
F
347
EF
1001
AcAecLayerStandard
1000

1000

  0
ENDTAB
  0
TABLE
  2
STYLE
  5
3
330
0
100
AcDbSymbolTable
 70
     2
  0
STYLE
  5
11
330
3
100
AcDbSymbolTableRecord
100
AcDbTextStyleTableRecord
  2
Standard
 70
     0
 40
0.0
 41
1.0
 50
0.0
 71
     0
 42
2.5
  3
txt
  4
gbcbig.shx
  0
STYLE
  5
129
330
3
100
AcDbSymbolTableRecord
100
AcDbTextStyleTableRecord
  2

 70
     1
 40
0.0
 41
1.0
 50
0.0
 71
     0
 42
2.5
  3
ltypeshp.shx
  4

  0
ENDTAB
  0
TABLE
  2
VIEW
  5
6
330
0
100
AcDbSymbolTable
 70
     0
  0
ENDTAB
  0
TABLE
  2
UCS
  5
7
330
0
100
AcDbSymbolTable
 70
     0
  0
ENDTAB
  0
TABLE
  2
APPID
  5
9
330
0
100
AcDbSymbolTable
 70
     4
  0
APPID
  5
12
330
9
100
AcDbSymbolTableRecord
100
AcDbRegAppTableRecord
  2
ACAD
 70
     0
  0
APPID
  5
9E
330
9
100
AcDbSymbolTableRecord
100
AcDbRegAppTableRecord
  2
ACAD_PSEXT
 70
     0
  0
APPID
  5
124
330
9
100
AcDbSymbolTableRecord
100
AcDbRegAppTableRecord
  2
AcAecLayerStandard
 70
     0
  0
APPID
  5
130
330
9
100
AcDbSymbolTableRecord
100
AcDbRegAppTableRecord
  2
ACAD_EXEMPT_FROM_CAD_STANDARDS
 70
     0
  0
ENDTAB
  0
TABLE
  2
DIMSTYLE
  5
A
330
0
100
AcDbSymbolTable
 70
     1
100
AcDbDimStyleTable
 71
     1
340
27
  0
DIMSTYLE
105
27
102
{ACAD_REACTORS
330
CE4
330
CFE
330
D18
330
D32
330
D4C
330
D66
330
D95
330
E14
102
}
330
A
100
AcDbSymbolTableRecord
100
AcDbDimStyleTableRecord
  2
ISO-25
 70
     0
 41
7.5
 42
0.625
 43
3.75
 44
1.25
 73
     0
 74
     0
 78
     8
140
7.5
141
2.5
143
0.03937007874016
147
0.625
171
     3
172
     1
271
     2
272
     2
274
     3
278
    44
283
     0
284
     8
340
11
  0
ENDTAB
  0
TABLE
  2
BLOCK_RECORD
  5
1
330
0
100
AcDbSymbolTable
 70
    10
  0
BLOCK_RECORD
  5
1F
102
{ACAD_XDICTIONARY
360
14B
102
}
330
1
100
AcDbSymbolTableRecord
100
AcDbBlockTableRecord
  2
*Model_Space
340
22
 70
     0
280
     1
281
     0
  0
BLOCK_RECORD
  5
D2
330
1
100
AcDbSymbolTableRecord
100
AcDbBlockTableRecord
  2
*Paper_Space
340
D3
 70
     0
280
     1
281
     0
  0
BLOCK_RECORD
  5
D6
330
1
100
AcDbSymbolTableRecord
100
AcDbBlockTableRecord
  2
*Paper_Space0
340
D7
 70
     0
280
     1
281
     0
  0
BLOCK_RECORD
  5
CE5
330
1
100
AcDbSymbolTableRecord
100
AcDbBlockTableRecord
  2
*D1
340
0
 70
     0
280
     1
281
     0
  0
BLOCK_RECORD
  5
CFF
330
1
100
AcDbSymbolTableRecord
100
AcDbBlockTableRecord
  2
*D2
340
0
 70
     0
280
     1
281
     0
  0
BLOCK_RECORD
  5
D19
330
1
100
AcDbSymbolTableRecord
100
AcDbBlockTableRecord
  2
*D3
340
0
 70
     0
280
     1
281
     0
  0
BLOCK_RECORD
  5
D33
330
1
100
AcDbSymbolTableRecord
100
AcDbBlockTableRecord
  2
*D4
340
0
 70
     0
280
     1
281
     0
  0
BLOCK_RECORD
  5
D4D
330
1
100
AcDbSymbolTableRecord
100
AcDbBlockTableRecord
  2
*D5
340
0
 70
     0
280
     1
281
     0
  0
BLOCK_RECORD
  5
D67
330
1
100
AcDbSymbolTableRecord
100
AcDbBlockTableRecord
  2
*D6
340
0
 70
     0
280
     1
281
     0
  0
BLOCK_RECORD
  5
D96
330
1
100
AcDbSymbolTableRecord
100
AcDbBlockTableRecord
  2
*D7
340
0
 70
     0
280
     1
281
     0
  0
BLOCK_RECORD
  5
E17
330
1
100
AcDbSymbolTableRecord
100
AcDbBlockTableRecord
  2
*D8
340
0
 70
     0
280
     1
281
     0
  0
ENDTAB
  0
ENDSEC
  0
SECTION
  2
BLOCKS
  0
BLOCK
  5
20
330
1F
100
AcDbEntity
  8
0
100
AcDbBlockBegin
  2
*Model_Space
 70
     0
 10
0.0
 20
0.0
 30
0.0
  3
*Model_Space
  1

  0
ENDBLK
  5
21
330
1F
100
AcDbEntity
  8
0
100
AcDbBlockEnd
  0
BLOCK
  5
D4
330
D2
100
AcDbEntity
 67
     1
  8
0
100
AcDbBlockBegin
  2
*Paper_Space
 70
     0
 10
0.0
 20
0.0
 30
0.0
  3
*Paper_Space
  1

  0
ENDBLK
  5
D5
330
D2
100
AcDbEntity
 67
     1
  8
0
100
AcDbBlockEnd
  0
BLOCK
  5
D8
330
D6
100
AcDbEntity
 67
     1
  8
0
100
AcDbBlockBegin
  2
*Paper_Space0
 70
     0
 10
0.0
 20
0.0
 30
0.0
  3
*Paper_Space0
  1

  0
ENDBLK
  5
D9
330
D6
100
AcDbEntity
 67
     1
  8
0
100
AcDbBlockEnd
  0
BLOCK
  5
CF0
330
CE5
100
AcDbEntity
  8
0
100
AcDbBlockBegin
  2
*D1
 70
     1
 10
0.0
 20
0.0
 30
0.0
  3
*D1
  1

  0
LINE
  5
FDA
330
CE5
100
AcDbEntity
  8
dim
 62
     0
370
    -2
100
AcDbLine
 10
596.2125429002817
 20
705.4560270881142
 30
0.0
 11
513.1865678598215
 21
705.4560270881142
 31
0.0
  0
LINE
  5
FDB
330
CE5
100
AcDbEntity
  8
dim
 62
     0
370
    -2
100
AcDbLine
 10
820.2125429002817
 20
497.4560270881144
 30
0.0
 11
513.1865678598215
 21
497.4560270881144
 31
0.0
  0
LINE
  5
FDC
330
CE5
100
AcDbEntity
  8
dim
 62
     0
370
    -2
100
AcDbLine
 10
514.4365678598214
 20
697.9560270881143
 30
0.0
 11
514.4365678598214
 21
620.8310270881144
 31
0.0
  0
LINE
  5
FDD
330
CE5
100
AcDbEntity
  8
dim
 62
     0
370
    -2
100
AcDbLine
 10
514.4365678598214
 20
504.9560270881144
 30
0.0
 11
514.4365678598214
 21
582.0810270881143
 31
0.0
  0
SOLID
  5
FDE
330
CE5
100
AcDbEntity
  8
dim
 62
     0
100
AcDbTrace
 10
513.1865678598215
 20
697.9560270881143
 30
0.0
 11
515.6865678598214
 21
697.9560270881143
 31
0.0
 12
514.4365678598214
 22
705.4560270881142
 32
0.0
 13
514.4365678598214
 23
705.4560270881142
 33
0.0
  0
SOLID
  5
FDF
330
CE5
100
AcDbEntity
  8
dim
 62
     0
100
AcDbTrace
 10
513.1865678598215
 20
504.9560270881144
 30
0.0
 11
515.6865678598214
 21
504.9560270881144
 31
0.0
 12
514.4365678598214
 22
497.4560270881144
 32
0.0
 13
514.4365678598214
 23
497.4560270881144
 33
0.0
  0
MTEXT
  5
FE0
330
CE5
100
AcDbEntity
  8
dim
 62
     0
100
AcDbMText
 10
514.4365678598213
 20
601.4560270881145
 30
0.0
 40
7.5
 41
0.0
 46
0.0
 71
     5
 72
     1
  1
8-1/4"
 11
0.0000000000000001
 21
1.0
 31
0.0
 73
     1
 44
1.0
  0
POINT
  5
FE1
330
CE5
100
AcDbEntity
  8
Defpoints
 62
     0
100
AcDbPoint
 10
596.8375429002817
 20
705.4560270881142
 30
0.0
  0
POINT
  5
FE2
330
CE5
100
AcDbEntity
  8
Defpoints
 62
     0
100
AcDbPoint
 10
820.8375429002817
 20
497.4560270881144
 30
0.0
  0
POINT
  5
FE3
330
CE5
100
AcDbEntity
  8
Defpoints
 62
     0
100
AcDbPoint
 10
514.4365678598214
 20
497.4560270881144
 30
0.0
  0
ENDBLK
  5
CF1
330
CE5
100
AcDbEntity
  8
0
100
AcDbBlockEnd
  0
BLOCK
  5
D0A
330
CFF
100
AcDbEntity
  8
0
100
AcDbBlockBegin
  2
*D2
 70
     1
 10
0.0
 20
0.0
 30
0.0
  3
*D2
  1

  0
LINE
  5
FD0
330
CFF
100
AcDbEntity
  8
dim
 62
     0
370
    -2
100
AcDbLine
 10
604.2125429002817
 20
1162.849304385498
 30
0.0
 11
501.8718193404647
 21
1162.849304385498
 31
0.0
  0
LINE
  5
FD1
330
CFF
100
AcDbEntity
  8
dim
 62
     0
370
    -2
100
AcDbLine
 10
604.2125429002817
 20
782.8493043854977
 30
0.0
 11
501.8718193404646
 21
782.8493043854977
 31
0.0
  0
LINE
  5
FD2
330
CFF
100
AcDbEntity
  8
dim
 62
     0
370
    -2
100
AcDbLine
 10
503.1218193404647
 20
1155.349304385498
 30
0.0
 11
503.1218193404646
 21
995.9743043854979
 31
0.0
  0
LINE
  5
FD3
330
CFF
100
AcDbEntity
  8
dim
 62
     0
370
    -2
100
AcDbLine
 10
503.1218193404646
 20
790.3493043854977
 30
0.0
 11
503.1218193404646
 21
949.7243043854979
 31
0.0
  0
SOLID
  5
FD4
330
CFF
100
AcDbEntity
  8
dim
 62
     0
100
AcDbTrace
 10
501.8718193404647
 20
1155.349304385498
 30
0.0
 11
504.3718193404647
 21
1155.349304385498
 31
0.0
 12
503.1218193404647
 22
1162.849304385498
 32
0.0
 13
503.1218193404647
 23
1162.849304385498
 33
0.0
  0
SOLID
  5
FD5
330
CFF
100
AcDbEntity
  8
dim
 62
     0
100
AcDbTrace
 10
501.8718193404646
 20
790.3493043854977
 30
0.0
 11
504.3718193404646
 21
790.3493043854977
 31
0.0
 12
503.1218193404646
 22
782.8493043854977
 32
0.0
 13
503.1218193404646
 23
782.8493043854977
 33
0.0
  0
MTEXT
  5
FD6
330
CFF
100
AcDbEntity
  8
dim
 62
     0
100
AcDbMText
 10
503.1218193404645
 20
972.849304385498
 30
0.0
 40
7.5
 41
0.0
 46
0.0
 71
     5
 72
     1
  1
14-5/8"
 11
0.0000000000000001
 21
1.0
 31
0.0
 73
     1
 44
1.0
  0
POINT
  5
FD7
330
CFF
100
AcDbEntity
  8
Defpoints
 62
     0
100
AcDbPoint
 10
604.8375429002817
 20
1162.849304385498
 30
0.0
  0
POINT
  5
FD8
330
CFF
100
AcDbEntity
  8
Defpoints
 62
     0
100
AcDbPoint
 10
604.8375429002817
 20
782.8493043854977
 30
0.0
  0
POINT
  5
FD9
330
CFF
100
AcDbEntity
  8
Defpoints
 62
     0
100
AcDbPoint
 10
503.1218193404646
 20
782.8493043854977
 30
0.0
  0
ENDBLK
  5
D0B
330
CFF
100
AcDbEntity
  8
0
100
AcDbBlockEnd
  0
BLOCK
  5
D24
330
D19
100
AcDbEntity
  8
0
100
AcDbBlockBegin
  2
*D3
 70
     1
 10
0.0
 20
0.0
 30
0.0
  3
*D3
  1

  0
LINE
  5
E80
330
D19
100
AcDbEntity
  8
dim
 62
     0
370
    -2
100
AcDbLine
 10
634.2125429002817
 20
1130.849304385498
 30
0.0
 11
543.9370016509774
 21
1130.849304385498
 31
0.0
  0
LINE
  5
E81
330
D19
100
AcDbEntity
  8
dim
 62
     0
370
    -2
100
AcDbLine
 10
634.2125429002817
 20
814.849304385498
 30
0.0
 11
543.9370016509774
 21
814.849304385498
 31
0.0
  0
LINE
  5
E82
330
D19
100
AcDbEntity
  8
dim
 62
     0
370
    -2
100
AcDbLine
 10
545.1870016509774
 20
1123.349304385498
 30
0.0
 11
545.1870016509774
 21
995.9743043854981
 31
0.0
  0
LINE
  5
E83
330
D19
100
AcDbEntity
  8
dim
 62
     0
370
    -2
100
AcDbLine
 10
545.1870016509774
 20
822.3493043854981
 30
0.0
 11
545.1870016509774
 21
949.7243043854981
 31
0.0
  0
SOLID
  5
E84
330
D19
100
AcDbEntity
  8
dim
 62
     0
100
AcDbTrace
 10
543.9370016509774
 20
1123.349304385498
 30
0.0
 11
546.4370016509774
 21
1123.349304385498
 31
0.0
 12
545.1870016509774
 22
1130.849304385498
 32
0.0
 13
545.1870016509774
 23
1130.849304385498
 33
0.0
  0
SOLID
  5
E85
330
D19
100
AcDbEntity
  8
dim
 62
     0
100
AcDbTrace
 10
543.9370016509774
 20
822.3493043854981
 30
0.0
 11
546.4370016509774
 21
822.3493043854981
 31
0.0
 12
545.1870016509774
 22
814.849304385498
 32
0.0
 13
545.1870016509774
 23
814.849304385498
 33
0.0
  0
MTEXT
  5
E86
330
D19
100
AcDbEntity
  8
dim
 62
     0
100
AcDbMText
 10
545.1870016509773
 20
972.8493043854982
 30
0.0
 40
7.5
 41
0.0
 46
0.0
 71
     5
 72
     1
  1
12-3/8"
 11
0.0000000000000001
 21
1.0
 31
0.0
 73
     1
 44
1.0
  0
POINT
  5
E87
330
D19
100
AcDbEntity
  8
Defpoints
 62
     0
100
AcDbPoint
 10
634.8375429002817
 20
1130.849304385498
 30
0.0
  0
POINT
  5
E88
330
D19
100
AcDbEntity
  8
Defpoints
 62
     0
100
AcDbPoint
 10
634.8375429002817
 20
814.849304385498
 30
0.0
  0
POINT
  5
E89
330
D19
100
AcDbEntity
  8
Defpoints
 62
     0
100
AcDbPoint
 10
545.1870016509774
 20
814.849304385498
 30
0.0
  0
ENDBLK
  5
D25
330
D19
100
AcDbEntity
  8
0
100
AcDbBlockEnd
  0
BLOCK
  5
D3E
330
D33
100
AcDbEntity
  8
0
100
AcDbBlockBegin
  2
*D4
 70
     1
 10
0.0
 20
0.0
 30
0.0
  3
*D4
  1

  0
LINE
  5
E8A
330
D33
100
AcDbEntity
  8
dim
 62
     0
370
    -2
100
AcDbLine
 10
594.8375429002817
 20
792.2243043854976
 30
0.0
 11
594.8375429002817
 21
728.5487717722133
 31
0.0
  0
LINE
  5
E8B
330
D33
100
AcDbEntity
  8
dim
 62
     0
370
    -2
100
AcDbLine
 10
1124.837542900282
 20
792.2243043854976
 30
0.0
 11
1124.837542900282
 21
728.5487717722133
 31
0.0
  0
LINE
  5
E8C
330
D33
100
AcDbEntity
  8
dim
 62
     0
370
    -2
100
AcDbLine
 10
602.3375429002817
 20
729.7987717722134
 30
0.0
 11
836.0875429002819
 21
729.7987717722134
 31
0.0
  0
LINE
  5
E8D
330
D33
100
AcDbEntity
  8
dim
 62
     0
370
    -2
100
AcDbLine
 10
1117.337542900282
 20
729.7987717722134
 30
0.0
 11
883.5875429002816
 21
729.7987717722134
 31
0.0
  0
SOLID
  5
E8E
330
D33
100
AcDbEntity
  8
dim
 62
     0
100
AcDbTrace
 10
602.3375429002817
 20
731.0487717722134
 30
0.0
 11
602.3375429002817
 21
728.5487717722133
 31
0.0
 12
594.8375429002817
 22
729.7987717722134
 32
0.0
 13
594.8375429002817
 23
729.7987717722134
 33
0.0
  0
SOLID
  5
E8F
330
D33
100
AcDbEntity
  8
dim
 62
     0
100
AcDbTrace
 10
1117.337542900282
 20
731.0487717722134
 30
0.0
 11
1117.337542900282
 21
728.5487717722133
 31
0.0
 12
1124.837542900282
 22
729.7987717722134
 32
0.0
 13
1124.837542900282
 23
729.7987717722134
 33
0.0
  0
MTEXT
  5
E90
330
D33
100
AcDbEntity
  8
dim
 62
     0
100
AcDbMText
 10
859.8375429002818
 20
729.7987717722134
 30
0.0
 40
7.5
 41
0.0
 46
0.0
 71
     5
 72
     1
  1
20-3/4"
 73
     1
 44
1.0
  0
POINT
  5
E91
330
D33
100
AcDbEntity
  8
Defpoints
 62
     0
100
AcDbPoint
 10
594.8375429002817
 20
792.8493043854976
 30
0.0
  0
POINT
  5
E92
330
D33
100
AcDbEntity
  8
Defpoints
 62
     0
100
AcDbPoint
 10
1124.837542900282
 20
792.8493043854976
 30
0.0
  0
POINT
  5
E93
330
D33
100
AcDbEntity
  8
Defpoints
 62
     0
100
AcDbPoint
 10
1124.837542900282
 20
729.7987717722134
 30
0.0
  0
ENDBLK
  5
D3F
330
D33
100
AcDbEntity
  8
0
100
AcDbBlockEnd
  0
BLOCK
  5
D58
330
D4D
100
AcDbEntity
  8
0
100
AcDbBlockBegin
  2
*D5
 70
     1
 10
0.0
 20
0.0
 30
0.0
  3
*D5
  1

  0
LINE
  5
E9E
330
D4D
100
AcDbEntity
  8
dim
 62
     0
370
    -2
100
AcDbLine
 10
624.8375429002817
 20
824.224304385498
 30
0.0
 11
624.8375429002817
 21
756.9859663480374
 31
0.0
  0
LINE
  5
E9F
330
D4D
100
AcDbEntity
  8
dim
 62
     0
370
    -2
100
AcDbLine
 10
1094.837542900282
 20
824.224304385498
 30
0.0
 11
1094.837542900282
 21
756.9859663480374
 31
0.0
  0
LINE
  5
EA0
330
D4D
100
AcDbEntity
  8
dim
 62
     0
370
    -2
100
AcDbLine
 10
632.3375429002817
 20
758.2359663480374
 30
0.0
 11
837.9625429002818
 21
758.2359663480374
 31
0.0
  0
LINE
  5
EA1
330
D4D
100
AcDbEntity
  8
dim
 62
     0
370
    -2
100
AcDbLine
 10
1087.337542900282
 20
758.2359663480374
 30
0.0
 11
881.7125429002818
 21
758.2359663480374
 31
0.0
  0
SOLID
  5
EA2
330
D4D
100
AcDbEntity
  8
dim
 62
     0
100
AcDbTrace
 10
632.3375429002817
 20
759.4859663480374
 30
0.0
 11
632.3375429002817
 21
756.9859663480374
 31
0.0
 12
624.8375429002817
 22
758.2359663480374
 32
0.0
 13
624.8375429002817
 23
758.2359663480374
 33
0.0
  0
SOLID
  5
EA3
330
D4D
100
AcDbEntity
  8
dim
 62
     0
100
AcDbTrace
 10
1087.337542900282
 20
759.4859663480374
 30
0.0
 11
1087.337542900282
 21
756.9859663480374
 31
0.0
 12
1094.837542900282
 22
758.2359663480374
 32
0.0
 13
1094.837542900282
 23
758.2359663480374
 33
0.0
  0
MTEXT
  5
EA4
330
D4D
100
AcDbEntity
  8
dim
 62
     0
100
AcDbMText
 10
859.8375429002818
 20
758.2359663480374
 30
0.0
 40
7.5
 41
0.0
 46
0.0
 71
     5
 72
     1
  1
18-1/2"
 73
     1
 44
1.0
  0
POINT
  5
EA5
330
D4D
100
AcDbEntity
  8
Defpoints
 62
     0
100
AcDbPoint
 10
624.8375429002817
 20
824.8493043854979
 30
0.0
  0
POINT
  5
EA6
330
D4D
100
AcDbEntity
  8
Defpoints
 62
     0
100
AcDbPoint
 10
1094.837542900282
 20
824.8493043854979
 30
0.0
  0
POINT
  5
EA7
330
D4D
100
AcDbEntity
  8
Defpoints
 62
     0
100
AcDbPoint
 10
1094.837542900282
 20
758.2359663480374
 30
0.0
  0
ENDBLK
  5
D59
330
D4D
100
AcDbEntity
  8
0
100
AcDbBlockEnd
  0
BLOCK
  5
D72
330
D67
100
AcDbEntity
  8
0
100
AcDbBlockBegin
  2
*D6
 70
     1
 10
0.0
 20
0.0
 30
0.0
  3
*D6
  1

  0
LINE
  5
EB2
330
D67
100
AcDbEntity
  8
dim
 62
     0
370
    -2
100
AcDbLine
 10
634.3375429002817
 20
973.4743043854976
 30
0.0
 11
634.3375429002817
 21
974.0993043854976
 31
0.0
  0
LINE
  5
EB3
330
D67
100
AcDbEntity
  8
dim
 62
     0
370
    -2
100
AcDbLine
 10
1085.337542900282
 20
973.4743043854976
 30
0.0
 11
1085.337542900282
 21
974.0993043854976
 31
0.0
  0
LINE
  5
EB4
330
D67
100
AcDbEntity
  8
dim
 62
     0
370
    -2
100
AcDbLine
 10
641.8375429002817
 20
972.8493043854976
 30
0.0
 11
686.6359625429266
 21
972.8493043854976
 31
0.0
  0
LINE
  5
EB5
330
D67
100
AcDbEntity
  8
dim
 62
     0
370
    -2
100
AcDbLine
 10
1077.837542900282
 20
972.8493043854976
 30
0.0
 11
732.8859625429267
 21
972.8493043854976
 31
0.0
  0
SOLID
  5
EB6
330
D67
100
AcDbEntity
  8
dim
 62
     0
100
AcDbTrace
 10
641.8375429002817
 20
974.0993043854976
 30
0.0
 11
641.8375429002817
 21
971.5993043854975
 31
0.0
 12
634.3375429002817
 22
972.8493043854976
 32
0.0
 13
634.3375429002817
 23
972.8493043854976
 33
0.0
  0
SOLID
  5
EB7
330
D67
100
AcDbEntity
  8
dim
 62
     0
100
AcDbTrace
 10
1077.837542900282
 20
974.0993043854976
 30
0.0
 11
1077.837542900282
 21
971.5993043854975
 31
0.0
 12
1085.337542900282
 22
972.8493043854976
 32
0.0
 13
1085.337542900282
 23
972.8493043854976
 33
0.0
  0
MTEXT
  5
EB8
330
D67
100
AcDbEntity
  8
dim
 62
     0
100
AcDbMText
 10
709.7609625429267
 20
972.8493043854976
 30
0.0
 40
7.5
 41
0.0
 46
0.0
 71
     5
 72
     1
  1
17-3/4"
 73
     1
 44
1.0
  0
POINT
  5
EB9
330
D67
100
AcDbEntity
  8
Defpoints
 62
     0
100
AcDbPoint
 10
634.3375429002817
 20
972.8493043854976
 30
0.0
  0
POINT
  5
EBA
330
D67
100
AcDbEntity
  8
Defpoints
 62
     0
100
AcDbPoint
 10
1085.337542900282
 20
972.8493043854976
 30
0.0
  0
POINT
  5
EBB
330
D67
100
AcDbEntity
  8
Defpoints
 62
     0
100
AcDbPoint
 10
1085.337542900282
 20
972.8493043854976
 30
0.0
  0
ENDBLK
  5
D73
330
D67
100
AcDbEntity
  8
0
100
AcDbBlockEnd
  0
BLOCK
  5
DA1
330
D96
100
AcDbEntity
  8
0
100
AcDbBlockBegin
  2
*D7
 70
     1
 10
0.0
 20
0.0
 30
0.0
  3
*D7
  1

  0
LINE
  5
EBC
330
D96
100
AcDbEntity
  8
dim
 62
     0
370
    -2
100
AcDbLine
 10
759.5658955197542
 20
822.8493043854976
 30
0.0
 11
760.1908955197544
 21
822.8493043854976
 31
0.0
  0
LINE
  5
EBD
330
D96
100
AcDbEntity
  8
dim
 62
     0
370
    -2
100
AcDbLine
 10
759.5658955197542
 20
1122.849304385498
 30
0.0
 11
760.1908955197544
 21
1122.849304385498
 31
0.0
  0
LINE
  5
EBE
330
D96
100
AcDbEntity
  8
dim
 62
     0
370
    -2
100
AcDbLine
 10
758.9408955197542
 20
830.3493043854977
 30
0.0
 11
758.9408955197542
 21
1025.367930712392
 31
0.0
  0
LINE
  5
EBF
330
D96
100
AcDbEntity
  8
dim
 62
     0
370
    -2
100
AcDbLine
 10
758.9408955197542
 20
1115.349304385498
 30
0.0
 11
758.9408955197542
 21
1079.117930712392
 31
0.0
  0
SOLID
  5
EC0
330
D96
100
AcDbEntity
  8
dim
 62
     0
100
AcDbTrace
 10
757.6908955197542
 20
830.3493043854977
 30
0.0
 11
760.1908955197544
 21
830.3493043854977
 31
0.0
 12
758.9408955197542
 22
822.8493043854976
 32
0.0
 13
758.9408955197542
 23
822.8493043854976
 33
0.0
  0
SOLID
  5
EC1
330
D96
100
AcDbEntity
  8
dim
 62
     0
100
AcDbTrace
 10
757.6908955197542
 20
1115.349304385498
 30
0.0
 11
760.1908955197544
 21
1115.349304385498
 31
0.0
 12
758.9408955197542
 22
1122.849304385498
 32
0.0
 13
758.9408955197542
 23
1122.849304385498
 33
0.0
  0
MTEXT
  5
EC2
330
D96
100
AcDbEntity
  8
dim
 62
     0
100
AcDbMText
 10
758.9408955197542
 20
1052.242930712392
 30
0.0
 40
7.5
 41
0.0
 46
0.0
 71
     5
 72
     1
  1
11-13/16"
 11
0.0000000000000001
 21
1.0
 31
0.0
 73
     1
 44
1.0
  0
POINT
  5
EC3
330
D96
100
AcDbEntity
  8
Defpoints
 62
     0
100
AcDbPoint
 10
758.9408955197542
 20
822.8493043854976
 30
0.0
  0
POINT
  5
EC4
330
D96
100
AcDbEntity
  8
Defpoints
 62
     0
100
AcDbPoint
 10
758.9408955197542
 20
1122.849304385498
 30
0.0
  0
POINT
  5
EC5
330
D96
100
AcDbEntity
  8
Defpoints
 62
     0
100
AcDbPoint
 10
758.9408955197542
 20
1122.849304385498
 30
0.0
  0
ENDBLK
  5
DA2
330
D96
100
AcDbEntity
  8
0
100
AcDbBlockEnd
  0
BLOCK
  5
E20
330
E17
100
AcDbEntity
  8
0
100
AcDbBlockBegin
  2
*D8
 70
     1
 10
0.0
 20
0.0
 30
0.0
  3
*D8
  1

  0
LINE
  5
E32
330
E17
100
AcDbEntity
  8
图层1
 62
     0
370
    -2
100
AcDbLine
 10
812.4818826885512
 20
1070.782484995328
 30
0.0
 11
830.8375717690712
 21
1070.808385087208
 31
0.0
  0
LINE
  5
E33
330
E17
100
AcDbEntity
  8
图层1
 62
     0
370
    -2
100
AcDbLine
 10
888.8375140314911
 20
1070.890223683787
 30
0.0
 11
896.3375065654249
 21
1070.900806260931
 31
0.0
  0
MTEXT
  5
E34
330
E17
100
AcDbEntity
  8
图层1
 62
     0
100
AcDbMText
 10
795.2318648605386
 20
1070.758145018512
 30
0.0
 40
7.5
 41
0.0
 46
0.0
 71
     5
 72
     1
  1
{\H1.4x;%%C1\H0.7x;\S11/16;\H1.4286x;"}
 11
0.9999990045244912
 21
0.0014110102858559
 31
0.0
 73
     1
 44
1.0
  0
LINE
  5
E35
330
E17
100
AcDbEntity
  8
图层1
 62
     0
370
    -2
100
AcDbLine
 10
881.3375214975572
 20
1070.879641106643
 30
0.0
 11
838.3375643030049
 21
1070.818967664352
 31
0.0
  0
SOLID
  5
E36
330
E17
100
AcDbEntity
  8
图层1
 62
     0
100
AcDbTrace
 10
888.8357502686337
 20
1072.140222439443
 30
0.0
 11
888.8392777943483
 21
1069.640224928132
 31
0.0
 12
881.3375214975572
 22
1070.879641106643
 32
0.0
 13
881.3375214975572
 23
1070.879641106643
 33
0.0
  0
SOLID
  5
E37
330
E17
100
AcDbEntity
  8
图层1
 62
     0
100
AcDbTrace
 10
830.835808006214
 20
1072.058383842863
 30
0.0
 11
830.8393355319287
 21
1069.558386331552
 31
0.0
 12
838.3375643030049
 22
1070.818967664352
 32
0.0
 13
838.3375643030049
 23
1070.818967664352
 33
0.0
  0
POINT
  5
E38
330
E17
100
AcDbEntity
  8
Defpoints
 62
     0
100
AcDbPoint
 10
838.3375643030049
 20
1070.818967664352
 30
0.0
  0
POINT
  5
E39
330
E17
100
AcDbEntity
  8
Defpoints
 62
     0
100
AcDbPoint
 10
881.3375214975572
 20
1070.879641106643
 30
0.0
  0
ENDBLK
  5
E21
330
E17
100
AcDbEntity
  8
0
100
AcDbBlockEnd
  0
ENDSEC
  0
SECTION
  2
ENTITIES
  0
LINE
  5
C95
330
1F
100
AcDbEntity
  8
con
100
AcDbLine
 10
859.8375429002818
 20
782.8493043854977
 30
0.0
 11
1114.837542900281
 21
782.8493043854977
 31
0.0
  0
LINE
  5
C97
330
1F
100
AcDbEntity
  8
con
100
AcDbLine
 10
1124.837542900282
 20
792.8493043854976
 30
0.0
 11
1124.837542900282
 21
1152.849304385497
 31
0.0
  0
LINE
  5
C98
330
1F
100
AcDbEntity
  8
con
100
AcDbLine
 10
1114.837542900282
 20
1162.849304385498
 30
0.0
 11
604.8375429002817
 21
1162.849304385498
 31
0.0
  0
LINE
  5
C99
330
1F
100
AcDbEntity
  8
con
100
AcDbLine
 10
594.8375429002817
 20
1152.849304385497
 30
0.0
 11
594.8375429002817
 21
792.8493043854976
 31
0.0
  0
LINE
  5
C9A
102
{ACAD_REACTORS
330
D17
102
}
330
1F
100
AcDbEntity
  8
con
100
AcDbLine
 10
604.8375429002817
 20
782.8493043854977
 30
0.0
 11
859.8375429002818
 21
782.8493043854977
 31
0.0
  0
LINE
  5
C9D
330
1F
100
AcDbEntity
  8
con
100
AcDbLine
 10
859.8375429002818
 20
814.8493043854976
 30
0.0
 11
1084.837542900282
 21
814.849304385498
 31
0.0
  0
LINE
  5
C9E
330
1F
100
AcDbEntity
  8
con
100
AcDbLine
 10
1094.837542900282
 20
824.8493043854979
 30
0.0
 11
1094.837542900282
 21
1120.849304385498
 31
0.0
  0
LINE
  5
C9F
330
1F
100
AcDbEntity
  8
con
100
AcDbLine
 10
1084.837542900282
 20
1130.849304385498
 30
0.0
 11
634.8375429002817
 21
1130.849304385498
 31
0.0
  0
LINE
  5
CA0
330
1F
100
AcDbEntity
  8
con
100
AcDbLine
 10
624.8375429002817
 20
1120.849304385498
 30
0.0
 11
624.8375429002817
 21
824.8493043854979
 31
0.0
  0
LINE
  5
CA1
102
{ACAD_REACTORS
330
D31
102
}
330
1F
100
AcDbEntity
  8
con
100
AcDbLine
 10
634.8375429002817
 20
814.849304385498
 30
0.0
 11
859.8375429002818
 21
814.8493043854976
 31
0.0
  0
LINE
  5
CAA
330
1F
100
AcDbEntity
  8
con
100
AcDbLine
 10
596.8375429002817
 20
705.4560270881142
 30
0.0
 11
1122.837542900281
 21
705.4560270881141
 31
0.0
  0
LINE
  5
CAB
330
1F
100
AcDbEntity
  8
con
100
AcDbLine
 10
596.8375429002817
 20
688.4560270881142
 30
0.0
 11
1122.837542900281
 21
688.4560270881142
 31
0.0
  0
LINE
  5
CB3
330
1F
100
AcDbEntity
  8
con
100
AcDbLine
 10
624.8375429002817
 20
688.4560270881142
 30
0.0
 11
649.8375429002817
 21
633.4560270881143
 31
0.0
  0
LINE
  5
CB4
330
1F
100
AcDbEntity
  8
con
100
AcDbLine
 10
1069.837542900281
 20
633.4560270881143
 30
0.0
 11
1094.837542900282
 21
688.4560270881142
 31
0.0
  0
ARC
  5
CBA
330
1F
100
AcDbEntity
  8
con
100
AcDbCircle
 10
859.8375429002818
 20
833.4560270881143
 30
0.0
 40
290.0000000000001
100
AcDbArc
 50
223.6028189727036
 51
316.3971810272964
  0
LINE
  5
CBB
102
{ACAD_REACTORS
330
CFD
102
}
330
1F
100
AcDbEntity
  8
con
100
AcDbLine
 10
820.8375429002815
 20
497.4560270881144
 30
0.0
 11
898.8375429002816
 21
497.456027088114
 31
0.0
  0
LINE
  5
CBC
330
1F
100
AcDbEntity
  8
con
100
AcDbLine
 10
594.8375429002817
 20
703.4560270881143
 30
0.0
 11
594.8375429002817
 21
690.4560270881143
 31
0.0
  0
LINE
  5
CBD
330
1F
100
AcDbEntity
  8
con
100
AcDbLine
 10
1124.837542900282
 20
703.4560270881143
 30
0.0
 11
1124.837542900282
 21
690.4560270881143
 31
0.0
  0
LINE
  5
CBE
330
1F
100
AcDbEntity
  8
con
100
AcDbLine
 10
898.8375429002816
 20
546.0904063190318
 30
0.0
 11
898.8375429002816
 21
497.456027088114
 31
0.0
  0
LINE
  5
CBF
102
{ACAD_REACTORS
330
CFD
102
}
330
1F
100
AcDbEntity
  8
con
100
AcDbLine
 10
820.8375429002817
 20
546.0904063190318
 30
0.0
 11
820.8375429002817
 21
497.456027088114
 31
0.0
  0
ARC
  5
CC0
102
{ACAD_REACTORS
330
D31
102
}
330
1F
100
AcDbEntity
  8
con
100
AcDbCircle
 10
634.8375429002817
 20
1120.849304385498
 30
0.0
 40
10.0
100
AcDbArc
 50
90.0
 51
180.0
  0
ARC
  5
CC1
102
{ACAD_REACTORS
330
D17
102
}
330
1F
100
AcDbEntity
  8
con
100
AcDbCircle
 10
604.8375429002817
 20
1152.849304385497
 30
0.0
 40
10.0
100
AcDbArc
 50
90.0
 51
180.0
  0
ARC
  5
CC2
330
1F
100
AcDbEntity
  8
con
100
AcDbCircle
 10
1084.837542900282
 20
1120.849304385498
 30
0.0
 40
10.0
100
AcDbArc
 50
0.0
 51
90.0
  0
ARC
  5
CC3
330
1F
100
AcDbEntity
  8
con
100
AcDbCircle
 10
1114.837542900282
 20
1152.849304385497
 30
0.0
 40
10.0
100
AcDbArc
 50
0.0
 51
90.0
  0
ARC
  5
CC4
102
{ACAD_REACTORS
330
D4B
102
}
330
1F
100
AcDbEntity
  8
con
100
AcDbCircle
 10
1114.837542900281
 20
792.8493043854976
 30
0.0
 40
10.0
100
AcDbArc
 50
270.0
 51
0.0
  0
ARC
  5
CC5
102
{ACAD_REACTORS
330
D65
102
}
330
1F
100
AcDbEntity
  8
con
100
AcDbCircle
 10
1084.837542900282
 20
824.8493043854979
 30
0.0
 40
10.0
100
AcDbArc
 50
270.0
 51
0.0
  0
ARC
  5
CC6
102
{ACAD_REACTORS
330
D65
102
}
330
1F
100
AcDbEntity
  8
con
100
AcDbCircle
 10
634.8375429002817
 20
824.8493043854979
 30
0.0
 40
10.0
100
AcDbArc
 50
180.0
 51
270.0
  0
ARC
  5
CC7
102
{ACAD_REACTORS
330
D4B
102
}
330
1F
100
AcDbEntity
  8
con
100
AcDbCircle
 10
604.8375429002817
 20
792.8493043854976
 30
0.0
 40
10.0
100
AcDbArc
 50
180.0
 51
270.0
  0
ARC
  5
CCA
102
{ACAD_REACTORS
330
CFD
102
}
330
1F
100
AcDbEntity
  8
con
100
AcDbCircle
 10
596.8375429002817
 20
703.4560270881143
 30
0.0
 40
2.0
100
AcDbArc
 50
90.0
 51
180.0
  0
ARC
  5
CCB
330
1F
100
AcDbEntity
  8
con
100
AcDbCircle
 10
596.8375429002817
 20
690.4560270881143
 30
0.0
 40
2.0
100
AcDbArc
 50
180.0
 51
270.0
  0
ARC
  5
CCC
330
1F
100
AcDbEntity
  8
con
100
AcDbCircle
 10
1122.837542900281
 20
703.4560270881143
 30
0.0
 40
2.0
100
AcDbArc
 50
0.0
 51
90.0
  0
ARC
  5
CCD
330
1F
100
AcDbEntity
  8
con
100
AcDbCircle
 10
1122.837542900281
 20
690.4560270881143
 30
0.0
 40
2.0
100
AcDbArc
 50
270.0
 51
0.0
  0
LINE
  5
CDB
330
1F
100
AcDbEntity
  8
dash
100
AcDbLine
 10
859.8375429002818
 20
1122.849304385498
 30
0.0
 11
1075.337542900282
 21
1122.849304385498
 31
0.0
  0
LINE
  5
CDC
330
1F
100
AcDbEntity
  8
dash
100
AcDbLine
 10
1085.337542900282
 20
1112.849304385498
 30
0.0
 11
1085.337542900282
 21
832.8493043854976
 31
0.0
  0
LINE
  5
CDD
330
1F
100
AcDbEntity
  8
dash
100
AcDbLine
 10
1075.337542900282
 20
822.8493043854976
 30
0.0
 11
644.3375429002817
 21
822.8493043854976
 31
0.0
  0
LINE
  5
CDE
330
1F
100
AcDbEntity
  8
dash
100
AcDbLine
 10
634.3375429002817
 20
832.8493043854976
 30
0.0
 11
634.3375429002817
 21
1112.849304385498
 31
0.0
  0
LINE
  5
CDF
330
1F
100
AcDbEntity
  8
dash
100
AcDbLine
 10
644.3375429002817
 20
1122.849304385498
 30
0.0
 11
859.8375429002818
 21
1122.849304385498
 31
0.0
  0
ARC
  5
CE0
330
1F
100
AcDbEntity
  8
dash
100
AcDbCircle
 10
644.3375429002817
 20
1112.849304385498
 30
0.0
 40
10.0
100
AcDbArc
 50
90.0
 51
180.0
  0
ARC
  5
CE1
330
1F
100
AcDbEntity
  8
dash
100
AcDbCircle
 10
1075.337542900282
 20
1112.849304385498
 30
0.0
 40
10.0
100
AcDbArc
 50
0.0
 51
90.0
  0
ARC
  5
CE2
330
1F
100
AcDbEntity
  8
dash
100
AcDbCircle
 10
1075.337542900282
 20
832.8493043854976
 30
0.0
 40
10.0
100
AcDbArc
 50
270.0
 51
0.0
  0
ARC
  5
CE3
330
1F
100
AcDbEntity
  8
dash
100
AcDbCircle
 10
644.3375429002817
 20
832.8493043854976
 30
0.0
 40
10.0
100
AcDbArc
 50
180.0
 51
270.0
  0
DIMENSION
  5
CE4
102
{ACAD_XDICTIONARY
360
CF2
102
}
102
{ACAD_REACTORS
330
CFD
102
}
330
1F
100
AcDbEntity
  8
dim
100
AcDbDimension
  2
*D1
 10
514.4365678598214
 20
497.4560270881144
 30
0.0
 11
514.4365678598213
 21
601.4560270881145
 31
0.0
 70
   160
  1
8-1/4"
 71
     5
 42
207.9999999999998
 73
     0
 74
     0
 75
     0
  3
ISO-25
100
AcDbAlignedDimension
 13
596.8375429002817
 23
705.4560270881142
 33
0.0
 14
820.8375429002817
 24
497.4560270881144
 34
0.0
 50
90.0
100
AcDbRotatedDimension
  0
DIMENSION
  5
CFE
102
{ACAD_XDICTIONARY
360
D0C
102
}
102
{ACAD_REACTORS
330
D17
102
}
330
1F
100
AcDbEntity
  8
dim
100
AcDbDimension
  2
*D2
 10
503.1218193404646
 20
782.8493043854977
 30
0.0
 11
503.1218193404645
 21
972.849304385498
 31
0.0
 70
    32
  1
14-5/8"
 71
     5
 42
380.0000000000005
 73
     0
 74
     0
 75
     0
  3
ISO-25
100
AcDbAlignedDimension
 13
604.8375429002817
 23
1162.849304385498
 33
0.0
 14
604.8375429002817
 24
782.8493043854977
 34
0.0
 50
90.0
100
AcDbRotatedDimension
  0
DIMENSION
  5
D18
102
{ACAD_XDICTIONARY
360
D26
102
}
102
{ACAD_REACTORS
330
D31
102
}
330
1F
100
AcDbEntity
  8
dim
100
AcDbDimension
  2
*D3
 10
545.1870016509774
 20
814.849304385498
 30
0.0
 11
545.1870016509773
 21
972.8493043854982
 31
0.0
 70
    32
  1
12-3/8"
 71
     5
 42
316.0000000000001
 73
     0
 74
     0
 75
     0
  3
ISO-25
100
AcDbAlignedDimension
 13
634.8375429002817
 23
1130.849304385498
 33
0.0
 14
634.8375429002817
 24
814.849304385498
 34
0.0
 50
90.0
100
AcDbRotatedDimension
  0
DIMENSION
  5
D32
102
{ACAD_XDICTIONARY
360
D40
102
}
102
{ACAD_REACTORS
330
D4B
102
}
330
1F
100
AcDbEntity
  8
dim
100
AcDbDimension
  2
*D4
 10
1124.837542900282
 20
729.7987717722134
 30
0.0
 11
859.8375429002818
 21
729.7987717722134
 31
0.0
 70
    32
  1
20-3/4"
 71
     5
 42
530.0000000000001
 73
     0
 74
     0
 75
     0
  3
ISO-25
100
AcDbAlignedDimension
 13
594.8375429002817
 23
792.8493043854976
 33
0.0
 14
1124.837542900282
 24
792.8493043854976
 34
0.0
100
AcDbRotatedDimension
  0
DIMENSION
  5
D4C
102
{ACAD_XDICTIONARY
360
D5A
102
}
102
{ACAD_REACTORS
330
D65
102
}
330
1F
100
AcDbEntity
  8
dim
100
AcDbDimension
  2
*D5
 10
1094.837542900282
 20
758.2359663480374
 30
0.0
 11
859.8375429002818
 21
758.2359663480374
 31
0.0
 70
    32
  1
18-1/2"
 71
     5
 42
470.0000000000001
 73
     0
 74
     0
 75
     0
  3
ISO-25
100
AcDbAlignedDimension
 13
624.8375429002817
 23
824.8493043854979
 33
0.0
 14
1094.837542900282
 24
824.8493043854979
 34
0.0
100
AcDbRotatedDimension
  0
DIMENSION
  5
D66
330
1F
100
AcDbEntity
  8
dim
100
AcDbDimension
  2
*D6
 10
1085.337542900282
 20
972.8493043854976
 30
0.0
 11
709.7609625429267
 21
972.8493043854976
 31
0.0
 70
   160
  1
17-3/4"
 71
     5
 42
451.0000000000001
 73
     0
 74
     0
 75
     0
  3
ISO-25
100
AcDbAlignedDimension
 13
634.3375429002817
 23
972.8493043854976
 33
0.0
 14
1085.337542900282
 24
972.8493043854976
 34
0.0
100
AcDbRotatedDimension
  0
DIMENSION
  5
D95
330
1F
100
AcDbEntity
  8
dim
100
AcDbDimension
  2
*D7
 10
758.9408955197542
 20
1122.849304385498
 30
0.0
 11
758.9408955197542
 21
1052.242930712392
 31
0.0
 70
   160
  1
11-13/16"
 71
     5
 42
300.0000000000004
 73
     0
 74
     0
 75
     0
  3
ISO-25
100
AcDbAlignedDimension
 13
758.9408955197542
 23
822.8493043854976
 33
0.0
 14
758.9408955197542
 24
1122.849304385498
 34
0.0
 50
90.0
100
AcDbRotatedDimension
  0
LINE
  5
DF7
330
1F
100
AcDbEntity
  8
图层1
100
AcDbLine
 10
634.3375429002817
 20
705.4560270881142
 30
0.0
 11
659.3375429002817
 21
650.4560270881142
 31
0.0
  0
LINE
  5
DF8
330
1F
100
AcDbEntity
  8
图层1
100
AcDbLine
 10
1060.337542900281
 20
650.4560270881142
 30
0.0
 11
1085.337542900282
 21
705.4560270881141
 31
0.0
  0
CIRCLE
  5
E13
102
{ACAD_REACTORS
330
E16
102
}
330
1F
100
AcDbEntity
  8
con
100
AcDbCircle
 10
859.8375429002818
 20
1070.849304385498
 30
0.0
 40
21.5
  0
DIMENSION
  5
E14
102
{ACAD_XDICTIONARY
360
E15
102
}
102
{ACAD_REACTORS
330
E16
102
}
330
1F
100
AcDbEntity
  8
图层1
100
AcDbDimension
  2
*D8
 10
881.3375214975572
 20
1070.879641106643
 30
0.0
 11
795.2318648605386
 21
1070.758145018512
 31
0.0
 70
   163
  1
{\H1.4x;%%C1\H0.7x;\S11/16;\H1.4286x;"}
 71
     5
 42
42.99999999999918
 73
     0
 74
     0
 75
     0
  3
ISO-25
100
AcDbDiametricDimension
 15
838.3375643030049
 25
1070.818967664352
 35
0.0
 40
0.0
1001
ACAD
1000
DSTYLE
1002
{
1070
   288
1070
     1
1002
}
  0
LINE
  5
E62
330
1F
100
AcDbEntity
  8
图层1
100
AcDbLine
 10
838.3375643030049
 20
559.9606893090608
 30
0.0
 11
838.3375643030053
 21
497.456027088114
 31
0.0
  0
LINE
  5
E63
330
1F
100
AcDbEntity
  8
图层1
100
AcDbLine
 10
881.3375214975582
 20
559.9606893090608
 30
0.0
 11
881.3375214975582
 21
497.456027088114
 31
0.0
  0
ARC
  5
E65
330
1F
100
AcDbEntity
  8
图层1
100
AcDbCircle
 10
859.8375429002818
 20
824.7666354290569
 30
0.0
 40
265.6773196571161
100
AcDbArc
 50
221.0030301717794
 51
318.9969698282205
  0
LEADER
  5
F81
330
1F
100
AcDbEntity
  8
dim
100
AcDbLeader
  3
ISO-25
 73
     0
 40
7.812290127602417
 41
117.2901276024177
 76
     3
 10
1082.840928240681
 20
858.3729408030736
 30
0.0
 10
1059.615142070625
 20
874.5194141882107
 30
0.0
 10
1034.874628275982
 20
874.5194141882107
 30
0.0
340
F82
213
0.0
223
3.75
233
0.0
1001
ACAD
1000
DSTYLE
1002
{
1070
   147
1040
0.625
1070
    77
1070
     0
1002
}
  0
MTEXT
  5
F82
102
{ACAD_REACTORS
330
F81
102
}
330
1F
100
AcDbEntity
  8
dim
100
AcDbMText
 10
1034.249628275982
 20
870.7694141882107
 30
0.0
 40
7.5
 41
0.0
 46
0.0
 71
     9
 72
     1
  1
{\fVerdana|b0|i0|c0|p34;CUT\fVerdana|b0|i0|c134|p34; \fVerdana|b0|i0|c0|p34;ALONG\fVerdana|b0|i0|c134|p34; \fVerdana|b0|i0|c0|p34;THIS\fVerdana|b0|i0|c134|p34; \fVerdana|b0|i0|c0|p34;LINE}
 73
     1
 44
1.0
  0
ENDSEC
  0
SECTION
  2
OBJECTS
  0
DICTIONARY
  5
C
330
0
100
AcDbDictionary
281
     1
  3
ACAD_COLOR
350
6B
  3
ACAD_GROUP
350
D
  3
ACAD_LAYOUT
350
1A
  3
ACAD_MATERIAL
350
6A
  3
ACAD_MLINESTYLE
350
17
  3
ACAD_PLOTSETTINGS
350
19
  3
ACAD_PLOTSTYLENAME
350
E
  3
ACAD_TABLESTYLE
350
7E
  3
ACAD_VISUALSTYLE
350
F0
  3
AcDbVariableDictionary
350
5E
  0
DICTIONARY
  5
12C
330
2
100
AcDbDictionary
280
     1
281
     1
  3
ACAD_LAYERFILTERS
360
60A
  3
ACLYDICTIONARY
360
609
  0
DICTIONARY
  5
14B
330
1F
100
AcDbDictionary
280
     1
281
     1
  3
ACAD_SORTENTS
360
14C
  0
DICTIONARY
  5
CF2
330
CE4
100
AcDbDictionary
280
     1
281
     1
  3
ACAD_DIMASSOC
360
CFD
  0
DICTIONARY
  5
D0C
330
CFE
100
AcDbDictionary
280
     1
281
     1
  3
ACAD_DIMASSOC
360
D17
  0
DICTIONARY
  5
D26
330
D18
100
AcDbDictionary
280
     1
281
     1
  3
ACAD_DIMASSOC
360
D31
  0
DICTIONARY
  5
D40
330
D32
100
AcDbDictionary
280
     1
281
     1
  3
ACAD_DIMASSOC
360
D4B
  0
DICTIONARY
  5
D5A
330
D4C
100
AcDbDictionary
280
     1
281
     1
  3
ACAD_DIMASSOC
360
D65
  0
DICTIONARY
  5
E15
330
E14
100
AcDbDictionary
280
     1
281
     1
  3
ACAD_DIMASSOC
360
E16
  0
DICTIONARY
  5
6B
102
{ACAD_REACTORS
330
C
102
}
330
C
100
AcDbDictionary
281
     1
  0
DICTIONARY
  5
D
102
{ACAD_REACTORS
330
C
102
}
330
C
100
AcDbDictionary
281
     1
  0
DICTIONARY
  5
1A
102
{ACAD_REACTORS
330
C
102
}
330
C
100
AcDbDictionary
281
     1
  3
Model
350
22
  3
布局1
350
D3
  3
布局2
350
D7
  0
DICTIONARY
  5
6A
102
{ACAD_REACTORS
330
C
102
}
330
C
100
AcDbDictionary
281
     1
  3
ByBlock
350
EE
  3
ByLayer
350
ED
  3
Global
350
EF
  0
DICTIONARY
  5
17
102
{ACAD_REACTORS
330
C
102
}
330
C
100
AcDbDictionary
281
     1
  3
Standard
350
18
  0
DICTIONARY
  5
19
102
{ACAD_REACTORS
330
C
102
}
330
C
100
AcDbDictionary
281
     1
  0
ACDBDICTIONARYWDFLT
  5
E
102
{ACAD_REACTORS
330
C
102
}
330
C
100
AcDbDictionary
281
     1
  3
Normal
350
F
100
AcDbDictionaryWithDefault
340
F
  0
DICTIONARY
  5
7E
102
{ACAD_REACTORS
330
C
102
}
330
C
100
AcDbDictionary
281
     1
  3
Standard
350
7F
  0
DICTIONARY
  5
F0
102
{ACAD_REACTORS
330
C
102
}
330
C
100
AcDbDictionary
281
     1
  3
2dWireframe
350
F6
  3
3D Hidden
350
F8
  3
3dWireframe
350
F7
  3
Basic
350
F5
  3
Brighten
350
FC
  3
ColorChange
350
100
  3
Conceptual
350
F9
  3
Dim
350
FB
  3
Facepattern
350
FF
  3
Flat
350
F1
  3
FlatWithEdges
350
F2
  3
Gouraud
350
F3
  3
GouraudWithEdges
350
F4
  3
Linepattern
350
FE
  3
Realistic
350
FA
  3
Thicken
350
FD
  0
DICTIONARY
  5
5E
102
{ACAD_REACTORS
330
C
102
}
330
C
100
AcDbDictionary
281
     1
  3
CTABLESTYLE
350
84
  3
DIMASSOC
350
5F
  3
HIDETEXT
350
63
  0
DICTIONARY
  5
60A
102
{ACAD_REACTORS
330
12C
102
}
330
12C
100
AcDbDictionary
281
     1
  0
DICTIONARY
  5
609
102
{ACAD_REACTORS
330
12C
102
}
330
12C
100
AcDbDictionary
281
     1
1001
ACAD
1000
<All
  0
SORTENTSTABLE
  5
14C
102
{ACAD_REACTORS
330
14B
102
}
330
14B
100
AcDbSortentsTable
330
1F
331
CC0
  5
CB5
331
CB4
  5
CC3
331
C98
  5
C9A
331
CC1
  5
C9D
331
C99
  5
C9E
331
CCA
  5
CBF
331
CC2
  5
CAC
331
CBA
  5
CC6
331
CDB
  5
CDB
331
C9A
  5
CA0
331
CCB
  5
CCA
331
CC3
  5
C99
331
CBB
  5
CC0
331
CDC
  5
CDC
331
CCC
  5
CCD
331
CE0
  5
CE2
331
CC4
  5
C98
331
CBC
  5
CC7
331
CDD
  5
CDF
331
CCD
  5
CCC
331
CE1
  5
CDE
331
CA0
  5
CB6
331
CC5
  5
CAA
331
CBD
  5
CCB
331
CDE
  5
CE0
331
C9D
  5
CA1
331
C95
  5
C95
331
CE2
  5
CDD
331
CA1
  5
CBC
331
CC6
  5
CBB
331
CBE
  5
CC5
331
CDF
  5
CE3
331
C9E
  5
CA2
331
CAA
  5
CBE
331
CE3
  5
CE1
331
CC7
  5
C9F
331
CBF
  5
CC4
331
CB3
  5
CC2
331
C9F
  5
CB4
331
CAB
  5
CC1
331
C97
  5
C97
  0
DIMASSOC
  5
CFD
102
{ACAD_REACTORS
330
CF2
102
}
330
CF2
100
AcDbDimAssoc
330
CE4
 90
        3
 70
     0
 71
     0
  1
AcDbOsnapPointRef
 72
    13
331
CCA
 73
     2
 91
        0
 40
1.570796326794896
 10
0.0
 20
0.0
 30
2.000000000000000E+50
 75
     0
  1
AcDbOsnapPointRef
 72
     6
331
CBF
 73
     2
 91
        0
 40
0.9999999999999964
 10
0.0
 20
0.0
 30
0.0
332
CBB
 74
     2
 92
        0
 75
     0
  0
DIMASSOC
  5
D17
102
{ACAD_REACTORS
330
D0C
102
}
330
D0C
100
AcDbDimAssoc
330
CFE
 90
        3
 70
     0
 71
     0
  1
AcDbOsnapPointRef
 72
    13
331
CC1
 73
     2
 91
        0
 40
1.570796326794896
 10
0.0
 20
0.0
 30
2.000000000000000E+50
 75
     0
  1
AcDbOsnapPointRef
 72
    13
331
C9A
 73
     2
 91
        0
 40
0.0
 10
0.0
 20
0.0
 30
2.000000000000000E+50
 75
     0
  0
DIMASSOC
  5
D31
102
{ACAD_REACTORS
330
D26
102
}
330
D26
100
AcDbDimAssoc
330
D18
 90
        3
 70
     0
 71
     0
  1
AcDbOsnapPointRef
 72
    13
331
CC0
 73
     2
 91
        0
 40
1.570796326794896
 10
0.0
 20
0.0
 30
2.000000000000000E+50
 75
     0
  1
AcDbOsnapPointRef
 72
    13
331
CA1
 73
     2
 91
        0
 40
0.0
 10
0.0
 20
0.0
 30
2.000000000000000E+50
 75
     0
  0
DIMASSOC
  5
D4B
102
{ACAD_REACTORS
330
D40
102
}
330
D40
100
AcDbDimAssoc
330
D32
 90
        3
 70
     0
 71
     0
  1
AcDbOsnapPointRef
 72
    13
331
CC7
 73
     2
 91
        0
 40
3.141592653589792
 10
0.0
 20
0.0
 30
2.000000000000000E+50
 75
     0
  1
AcDbOsnapPointRef
 72
     1
331
CC4
 73
     2
 91
        0
 40
6.283185307179584
 10
0.0
 20
0.0
 30
2.000000000000000E+50
 75
     0
  0
DIMASSOC
  5
D65
102
{ACAD_REACTORS
330
D5A
102
}
330
D5A
100
AcDbDimAssoc
330
D4C
 90
        3
 70
     0
 71
     0
  1
AcDbOsnapPointRef
 72
    13
331
CC6
 73
     2
 91
        0
 40
3.141592653589792
 10
0.0
 20
0.0
 30
2.000000000000000E+50
 75
     0
  1
AcDbOsnapPointRef
 72
     1
331
CC5
 73
     2
 91
        0
 40
6.283185307179584
 10
0.0
 20
0.0
 30
2.000000000000000E+50
 75
     0
  0
DIMASSOC
  5
E16
102
{ACAD_REACTORS
330
E15
102
}
330
E15
100
AcDbDimAssoc
330
E14
 90
        2
 70
     0
 71
     0
  1
AcDbOsnapPointRef
 72
     3
331
E13
 73
     2
 91
        0
 40
0.0
 10
0.0
 20
0.0
 30
0.0
 75
     0
  0
LAYOUT
  5
22
102
{ACAD_REACTORS
330
1A
102
}
330
1A
100
AcDbPlotSettings
  1

  2
none_device
  4
ISO_A4_(210.00_x_297.00_MM)
  6

 40
7.5
 41
20.0
 42
7.5
 43
20.0
 44
210.0
 45
297.0
 46
11.54999923706054
 47
-13.65000009536743
 48
0.0
 49
0.0
140
0.0
141
0.0
142
1.0
143
8.704084754739808
 70
 11952
 72
     1
 73
     0
 74
     0
  7

 75
     0
147
0.1148885871608098
 76
     0
 77
     2
 78
   300
148
0.0
149
0.0
100
AcDbLayout
  1
Model
 70
     1
 71
     0
 10
0.0
 20
0.0
 11
12.0
 21
9.0
 12
0.0
 22
0.0
 32
0.0
 14
0.0
 24
0.0
 34
0.0
 15
0.0
 25
0.0
 35
0.0
146
0.0
 13
0.0
 23
0.0
 33
0.0
 16
1.0
 26
0.0
 36
0.0
 17
0.0
 27
1.0
 37
0.0
 76
     0
330
1F
331
EB
1001
ACAD_PSEXT
1000
None
1000
None
1000
Not applicable
1000
The layout will not be plotted unless a new plotter configuration name is selected.
1070
     0
  0
LAYOUT
  5
D3
102
{ACAD_REACTORS
330
1A
102
}
330
1A
100
AcDbPlotSettings
  1

  2
C:\Documents and Settings\basas\Application Data\Autodesk\AutoCAD 2005\R16.1\enu\plotters\Default Windows System Printer.pc3
  4

  6

 40
0.0
 41
0.0
 42
0.0
 43
0.0
 44
0.0
 45
0.0
 46
0.0
 47
0.0
 48
0.0
 49
0.0
140
0.0
141
0.0
142
1.0
143
1.0
 70
   688
 72
     0
 73
     0
 74
     5
  7

 75
    16
147
1.0
 76
     0
 77
     2
 78
   300
148
0.0
149
0.0
100
AcDbLayout
  1
布局1
 70
     1
 71
     1
 10
0.0
 20
0.0
 11
12.0
 21
9.0
 12
0.0
 22
0.0
 32
0.0
 14
0.0
 24
0.0
 34
0.0
 15
0.0
 25
0.0
 35
0.0
146
0.0
 13
0.0
 23
0.0
 33
0.0
 16
1.0
 26
0.0
 36
0.0
 17
0.0
 27
1.0
 37
0.0
 76
     0
330
D2
  0
LAYOUT
  5
D7
102
{ACAD_REACTORS
330
1A
102
}
330
1A
100
AcDbPlotSettings
  1

  2
C:\Documents and Settings\basas\Application Data\Autodesk\AutoCAD 2005\R16.1\enu\plotters\Default Windows System Printer.pc3
  4

  6

 40
0.0
 41
0.0
 42
0.0
 43
0.0
 44
0.0
 45
0.0
 46
0.0
 47
0.0
 48
0.0
 49
0.0
140
0.0
141
0.0
142
1.0
143
1.0
 70
   688
 72
     0
 73
     0
 74
     5
  7

 75
    16
147
1.0
 76
     0
 77
     2
 78
   300
148
0.0
149
0.0
100
AcDbLayout
  1
布局2
 70
     1
 71
     2
 10
0.0
 20
0.0
 11
12.0
 21
9.0
 12
0.0
 22
0.0
 32
0.0
 14
0.0
 24
0.0
 34
0.0
 15
0.0
 25
0.0
 35
0.0
146
0.0
 13
0.0
 23
0.0
 33
0.0
 16
1.0
 26
0.0
 36
0.0
 17
0.0
 27
1.0
 37
0.0
 76
     0
330
D6
  0
MATERIAL
  5
EE
102
{ACAD_REACTORS
330
6A
102
}
330
6A
100
AcDbMaterial
  1
ByBlock
  0
MATERIAL
  5
ED
102
{ACAD_REACTORS
330
6A
102
}
330
6A
100
AcDbMaterial
  1
ByLayer
  0
MATERIAL
  5
EF
102
{ACAD_REACTORS
330
6A
102
}
330
6A
100
AcDbMaterial
  1
Global
  0
MLINESTYLE
  5
18
102
{ACAD_REACTORS
330
17
102
}
330
17
100
AcDbMlineStyle
  2
STANDARD
 70
     0
  3

 62
   256
 51
90.0
 52
90.0
 71
     2
 49
0.5
 62
   256
  6
BYLAYER
 49
-0.5
 62
   256
  6
BYLAYER
  0
ACDBPLACEHOLDER
  5
F
102
{ACAD_REACTORS
330
E
102
}
330
E
  0
TABLESTYLE
  5
7F
102
{ACAD_REACTORS
330
7E
102
}
330
7E
100
AcDbTableStyle
  3
Standard
 70
     0
 71
     0
 40
1.5
 41
1.5
280
     0
281
     0
  7
Standard
140
4.5
170
     2
 62
     0
 63
     7
283
     0
 90
      512
 91
        0
  1

274
    -2
284
     1
 64
     0
275
    -2
285
     1
 65
     0
276
    -2
286
     1
 66
     0
277
    -2
287
     1
 67
     0
278
    -2
288
     1
 68
     0
279
    -2
289
     1
 69
     0
  7
Standard
140
6.0
170
     5
 62
     0
 63
     7
283
     0
 90
      512
 91
        0
  1

274
    -2
284
     1
 64
     0
275
    -2
285
     1
 65
     0
276
    -2
286
     1
 66
     0
277
    -2
287
     1
 67
     0
278
    -2
288
     1
 68
     0
279
    -2
289
     1
 69
     0
  7
Standard
140
4.5
170
     5
 62
     0
 63
     7
283
     0
 90
      512
 91
        0
  1

274
    -2
284
     1
 64
     0
275
    -2
285
     1
 65
     0
276
    -2
286
     1
 66
     0
277
    -2
287
     1
 67
     0
278
    -2
288
     1
 68
     0
279
    -2
289
     1
 69
     0
  0
VISUALSTYLE
  5
F6
102
{ACAD_REACTORS
330
F0
102
}
330
F0
100
AcDbVisualStyle
  2
2dWireframe
 70
     4
 71
     0
 72
     2
 73
     1
 90
        0
 40
-0.6
 41
-30.0
 62
     5
 63
     7
421
 16777215
 74
     1
 91
        4
 64
     7
 65
   257
 75
     1
175
     1
 42
1.0
 92
        0
 66
   257
 43
1.0
 76
     1
 77
     6
 78
     2
 67
     7
 79
     5
170
     0
171
     0
290
     0
174
     0
 93
        1
 44
0.0
173
     0
291
     0
 45
0.0
  0
VISUALSTYLE
  5
F8
102
{ACAD_REACTORS
330
F0
102
}
330
F0
100
AcDbVisualStyle
  2
3D Hidden
 70
     6
 71
     1
 72
     2
 73
     2
 90
        0
 40
-0.6
 41
-30.0
 62
     5
 63
     7
421
 16777215
 74
     2
 91
        2
 64
     7
 65
   257
 75
     2
175
     1
 42
40.0
 92
        0
 66
   257
 43
1.0
 76
     1
 77
     6
 78
     2
 67
     7
 79
     3
170
     0
171
     0
290
     0
174
     0
 93
        1
 44
0.0
173
     0
291
     0
 45
0.0
  0
VISUALSTYLE
  5
F7
102
{ACAD_REACTORS
330
F0
102
}
330
F0
100
AcDbVisualStyle
  2
3dWireframe
 70
     5
 71
     0
 72
     2
 73
     1
 90
        0
 40
-0.6
 41
-30.0
 62
     5
 63
     7
421
 16777215
 74
     1
 91
        4
 64
     7
 65
   257
 75
     1
175
     1
 42
1.0
 92
        0
 66
   257
 43
1.0
 76
     1
 77
     6
 78
     2
 67
     7
 79
     5
170
     0
171
     0
290
     0
174
     0
 93
        1
 44
0.0
173
     0
291
     0
 45
0.0
  0
VISUALSTYLE
  5
F5
102
{ACAD_REACTORS
330
F0
102
}
330
F0
100
AcDbVisualStyle
  2
Basic
 70
     7
 71
     1
 72
     0
 73
     1
 90
        0
 40
-0.6
 41
-30.0
 62
     5
 63
     7
421
 16777215
 74
     0
 91
        4
 64
     7
 65
   257
 75
     1
175
     1
 42
1.0
 92
        8
 66
     7
 43
1.0
 76
     1
 77
     6
 78
     2
 67
     7
 79
     5
170
     0
171
     0
290
     0
174
     0
 93
        1
 44
0.0
173
     0
291
     1
 45
0.0
  0
VISUALSTYLE
  5
FC
102
{ACAD_REACTORS
330
F0
102
}
330
F0
100
AcDbVisualStyle
  2
Brighten
 70
    12
 71
     2
 72
     2
 73
     1
 90
        0
 40
-0.6
 41
-30.0
 62
     5
 63
     7
421
 16777215
 74
     1
 91
        4
 64
     7
 65
   257
 75
     1
175
     1
 42
1.0
 92
        8
 66
     7
 43
1.0
 76
     1
 77
     6
 78
     2
 67
     7
 79
     5
170
     0
171
     0
290
     0
174
     0
 93
        1
 44
50.0
173
     0
291
     1
 45
0.0
  0
VISUALSTYLE
  5
100
102
{ACAD_REACTORS
330
F0
102
}
330
F0
100
AcDbVisualStyle
  2
ColorChange
 70
    16
 71
     2
 72
     2
 73
     3
 90
        0
 40
-0.6
 41
-30.0
 62
     5
 63
     8
421
  8421504
 74
     1
 91
        4
 64
     7
 65
   257
 75
     1
175
     1
 42
1.0
 92
        8
 66
     8
424
  8421504
 43
1.0
 76
     1
 77
     6
 78
     2
 67
     7
 79
     5
170
     0
171
     0
290
     0
174
     0
 93
        1
 44
0.0
173
     0
291
     1
 45
0.0
  0
VISUALSTYLE
  5
F9
102
{ACAD_REACTORS
330
F0
102
}
330
F0
100
AcDbVisualStyle
  2
Conceptual
 70
     9
 71
     3
 72
     2
 73
     1
 90
        0
 40
-0.6
 41
-30.0
 62
     5
 63
     7
421
 16777215
 74
     2
 91
        2
 64
     7
 65
   257
 75
     1
175
     1
 42
40.0
 92
        8
 66
     7
 43
1.0
 76
     1
 77
     6
 78
     2
 67
     7
 79
     3
170
     0
171
     0
290
     0
174
     0
 93
        1
 44
0.0
173
     0
291
     0
 45
0.0
  0
VISUALSTYLE
  5
FB
102
{ACAD_REACTORS
330
F0
102
}
330
F0
100
AcDbVisualStyle
  2
Dim
 70
    11
 71
     2
 72
     2
 73
     1
 90
        0
 40
-0.6
 41
-30.0
 62
     5
 63
     7
421
 16777215
 74
     1
 91
        4
 64
     7
 65
   257
 75
     1
175
     1
 42
1.0
 92
        8
 66
     7
 43
1.0
 76
     1
 77
     6
 78
     2
 67
     7
 79
     5
170
     0
171
     0
290
     0
174
     0
 93
        1
 44
-50.0
173
     0
291
     1
 45
0.0
  0
VISUALSTYLE
  5
FF
102
{ACAD_REACTORS
330
F0
102
}
330
F0
100
AcDbVisualStyle
  2
Facepattern
 70
    15
 71
     2
 72
     2
 73
     1
 90
        0
 40
-0.6
 41
-30.0
 62
     5
 63
     7
421
 16777215
 74
     1
 91
        4
 64
     7
 65
   257
 75
     1
175
     1
 42
1.0
 92
        8
 66
     7
 43
1.0
 76
     1
 77
     6
 78
     2
 67
     7
 79
     5
170
     0
171
     0
290
     0
174
     0
 93
        1
 44
0.0
173
     0
291
     1
 45
0.0
  0
VISUALSTYLE
  5
F1
102
{ACAD_REACTORS
330
F0
102
}
330
F0
100
AcDbVisualStyle
  2
Flat
 70
     0
 71
     2
 72
     1
 73
     1
 90
        2
 40
-0.6
 41
30.0
 62
     5
 63
     7
421
 16777215
 74
     0
 91
        4
 64
     7
 65
   257
 75
     1
175
     1
 42
1.0
 92
        8
 66
     7
 43
1.0
 76
     1
 77
     6
 78
     2
 67
     7
 79
     5
170
     0
171
     0
290
     0
174
     0
 93
        1
 44
0.0
173
     0
291
     1
 45
0.0
  0
VISUALSTYLE
  5
F2
102
{ACAD_REACTORS
330
F0
102
}
330
F0
100
AcDbVisualStyle
  2
FlatWithEdges
 70
     1
 71
     2
 72
     1
 73
     1
 90
        2
 40
-0.6
 41
30.0
 62
     5
 63
     7
421
 16777215
 74
     1
 91
        4
 64
     7
 65
   257
 75
     1
175
     1
 42
1.0
 92
        0
 66
   257
 43
1.0
 76
     1
 77
     6
 78
     2
 67
     7
 79
     5
170
     0
171
     0
290
     0
174
     0
 93
        1
 44
0.0
173
     0
291
     1
 45
0.0
  0
VISUALSTYLE
  5
F3
102
{ACAD_REACTORS
330
F0
102
}
330
F0
100
AcDbVisualStyle
  2
Gouraud
 70
     2
 71
     2
 72
     2
 73
     1
 90
        2
 40
-0.6
 41
30.0
 62
     5
 63
     7
421
 16777215
 74
     0
 91
        4
 64
     7
 65
   257
 75
     1
175
     1
 42
1.0
 92
        0
 66
     7
 43
1.0
 76
     1
 77
     6
 78
     2
 67
     7
 79
     5
170
     0
171
     0
290
     0
174
     0
 93
        1
 44
0.0
173
     0
291
     1
 45
0.0
  0
VISUALSTYLE
  5
F4
102
{ACAD_REACTORS
330
F0
102
}
330
F0
100
AcDbVisualStyle
  2
GouraudWithEdges
 70
     3
 71
     2
 72
     2
 73
     1
 90
        2
 40
-0.6
 41
30.0
 62
     5
 63
     7
421
 16777215
 74
     1
 91
        4
 64
     7
 65
   257
 75
     1
175
     1
 42
1.0
 92
        0
 66
   257
 43
1.0
 76
     1
 77
     6
 78
     2
 67
     7
 79
     5
170
     0
171
     0
290
     0
174
     0
 93
        1
 44
0.0
173
     0
291
     1
 45
0.0
  0
VISUALSTYLE
  5
FE
102
{ACAD_REACTORS
330
F0
102
}
330
F0
100
AcDbVisualStyle
  2
Linepattern
 70
    14
 71
     2
 72
     2
 73
     1
 90
        0
 40
-0.6
 41
-30.0
 62
     5
 63
     7
421
 16777215
 74
     1
 91
        4
 64
     7
 65
   257
 75
     7
175
     7
 42
1.0
 92
        8
 66
     7
 43
1.0
 76
     1
 77
     6
 78
     2
 67
     7
 79
     5
170
     0
171
     0
290
     0
174
     0
 93
        1
 44
0.0
173
     0
291
     1
 45
0.0
  0
VISUALSTYLE
  5
FA
102
{ACAD_REACTORS
330
F0
102
}
330
F0
100
AcDbVisualStyle
  2
Realistic
 70
     8
 71
     2
 72
     2
 73
     1
 90
        0
 40
-0.6
 41
-30.0
 62
     5
 63
     7
421
 16777215
 74
     1
 91
        0
 64
     7
 65
   257
 75
     1
175
     1
 42
1.0
 92
        8
 66
     8
424
  7895160
 43
1.0
 76
     1
 77
     6
 78
     2
 67
     7
 79
     5
170
     0
171
     0
290
     0
174
     0
 93
       13
 44
0.0
173
     0
291
     0
 45
0.0
  0
VISUALSTYLE
  5
FD
102
{ACAD_REACTORS
330
F0
102
}
330
F0
100
AcDbVisualStyle
  2
Thicken
 70
    13
 71
     2
 72
     2
 73
     1
 90
        0
 40
-0.6
 41
-30.0
 62
     5
 63
     7
421
 16777215
 74
     1
 91
        4
 64
     7
 65
   257
 75
     1
175
     1
 42
1.0
 92
       12
 66
     7
 43
1.0
 76
     1
 77
     6
 78
     2
 67
     7
 79
     5
170
     0
171
     0
290
     0
174
     0
 93
        1
 44
0.0
173
     0
291
     1
 45
0.0
  0
DICTIONARYVAR
  5
84
102
{ACAD_REACTORS
330
5E
102
}
330
5E
100
DictionaryVariables
280
     0
  1
STANDARD
  0
DICTIONARYVAR
  5
5F
102
{ACAD_REACTORS
330
5E
102
}
330
5E
100
DictionaryVariables
280
     0
  1
2
  0
DICTIONARYVAR
  5
63
102
{ACAD_REACTORS
330
5E
102
}
330
5E
100
DictionaryVariables
280
     0
  1
1
  0
ENDSEC
  0
EOF
