  0
SECTION
  2
HEADER
  9
$ACADVER
  1
AC1021
  9
$ACADMAINTVER
 70
     1
  9
$DWGCODEPAGE
  3
ANSI_936
  9
$LASTSAVEDBY
  1
Administrator
  9
$INSBASE
 10
0.0
 20
0.0
 30
0.0
  9
$EXTMIN
 10
711.9704026099261
 20
384.5958762183288
 30
0.0
  9
$EXTMAX
 10
1245.274785472468
 20
1075.336406115931
 30
0.0
  9
$LIMMIN
 10
0.0
 20
0.0
  9
$LIMMAX
 10
420.0
 20
297.0
  9
$ORTHOMODE
 70
     1
  9
$REGENMODE
 70
     1
  9
$FILLMODE
 70
     1
  9
$QTEXTMODE
 70
     0
  9
$MIRRTEXT
 70
     0
  9
$LTSCALE
 40
1.0
  9
$ATTMODE
 70
     1
  9
$TEXTSIZE
 40
2.5
  9
$TRACEWID
 40
1.0
  9
$TEXTSTYLE
  7
Standard
  9
$CLAYER
  8
图层1
  9
$CELTYPE
  6
ByLayer
  9
$CECOLOR
 62
   256
  9
$CELTSCALE
 40
1.0
  9
$DISPSILH
 70
     0
  9
$DIMSCALE
 40
1.0
  9
$DIMASZ
 40
7.5
  9
$DIMEXO
 40
0.625
  9
$DIMDLI
 40
3.75
  9
$DIMRND
 40
0.0
  9
$DIMDLE
 40
0.0
  9
$DIMEXE
 40
1.25
  9
$DIMTP
 40
0.0
  9
$DIMTM
 40
0.0
  9
$DIMTXT
 40
7.5
  9
$DIMCEN
 40
2.5
  9
$DIMTSZ
 40
0.0
  9
$DIMTOL
 70
     0
  9
$DIMLIM
 70
     0
  9
$DIMTIH
 70
     0
  9
$DIMTOH
 70
     0
  9
$DIMSE1
 70
     0
  9
$DIMSE2
 70
     0
  9
$DIMTAD
 70
     0
  9
$DIMZIN
 70
     8
  9
$DIMBLK
  1

  9
$DIMASO
 70
     1
  9
$DIMSHO
 70
     1
  9
$DIMPOST
  1

  9
$DIMAPOST
  1

  9
$DIMALT
 70
     0
  9
$DIMALTD
 70
     3
  9
$DIMALTF
 40
0.03937007874016
  9
$DIMLFAC
 40
1.0
  9
$DIMTOFL
 70
     1
  9
$DIMTVP
 40
0.0
  9
$DIMTIX
 70
     0
  9
$DIMSOXD
 70
     0
  9
$DIMSAH
 70
     0
  9
$DIMBLK1
  1

  9
$DIMBLK2
  1

  9
$DIMSTYLE
  2
ISO-25
  9
$DIMCLRD
 70
     0
  9
$DIMCLRE
 70
     0
  9
$DIMCLRT
 70
     0
  9
$DIMTFAC
 40
1.0
  9
$DIMGAP
 40
0.625
  9
$DIMJUST
 70
     0
  9
$DIMSD1
 70
     0
  9
$DIMSD2
 70
     0
  9
$DIMTOLJ
 70
     0
  9
$DIMTZIN
 70
     8
  9
$DIMALTZ
 70
     0
  9
$DIMALTTZ
 70
     0
  9
$DIMUPT
 70
     0
  9
$DIMDEC
 70
     2
  9
$DIMTDEC
 70
     2
  9
$DIMALTU
 70
     2
  9
$DIMALTTD
 70
     3
  9
$DIMTXSTY
  7
Standard
  9
$DIMAUNIT
 70
     0
  9
$DIMADEC
 70
     0
  9
$DIMALTRND
 40
0.0
  9
$DIMAZIN
 70
     0
  9
$DIMDSEP
 70
    44
  9
$DIMATFIT
 70
     3
  9
$DIMFRAC
 70
     0
  9
$DIMLDRBLK
  1

  9
$DIMLUNIT
 70
     2
  9
$DIMLWD
 70
    -2
  9
$DIMLWE
 70
    -2
  9
$DIMTMOVE
 70
     0
  9
$DIMFXL
 40
1.0
  9
$DIMFXLON
 70
     0
  9
$DIMJOGANG
 40
0.7853981633974483
  9
$DIMTFILL
 70
     0
  9
$DIMTFILLCLR
 70
     0
  9
$DIMARCSYM
 70
     0
  9
$DIMLTYPE
  6

  9
$DIMLTEX1
  6

  9
$DIMLTEX2
  6

  9
$LUNITS
 70
     2
  9
$LUPREC
 70
     4
  9
$SKETCHINC
 40
1.0
  9
$FILLETRAD
 40
10.0
  9
$AUNITS
 70
     0
  9
$AUPREC
 70
     0
  9
$MENU
  1
.
  9
$ELEVATION
 40
0.0
  9
$PELEVATION
 40
0.0
  9
$THICKNESS
 40
0.0
  9
$LIMCHECK
 70
     0
  9
$CHAMFERA
 40
0.0
  9
$CHAMFERB
 40
0.0
  9
$CHAMFERC
 40
0.0
  9
$CHAMFERD
 40
0.0
  9
$SKPOLY
 70
     0
  9
$TDCREATE
 40
2458246.405100845
  9
$TDUCREATE
 40
2458246.071767512
  9
$TDUPDATE
 40
2458854.650035498
  9
$TDUUPDATE
 40
2458854.316702165
  9
$TDINDWG
 40
0.1167163310
  9
$TDUSRTIMER
 40
0.1167152894
  9
$USRTIMER
 70
     1
  9
$ANGBASE
 50
0.0
  9
$ANGDIR
 70
     0
  9
$PDMODE
 70
     0
  9
$PDSIZE
 40
0.0
  9
$PLINEWID
 40
0.0
  9
$SPLFRAME
 70
     0
  9
$SPLINETYPE
 70
     6
  9
$SPLINESEGS
 70
     8
  9
$HANDSEED
  5
89B
  9
$SURFTAB1
 70
     6
  9
$SURFTAB2
 70
     6
  9
$SURFTYPE
 70
     6
  9
$SURFU
 70
     6
  9
$SURFV
 70
     6
  9
$UCSBASE
  2

  9
$UCSNAME
  2

  9
$UCSORG
 10
0.0
 20
0.0
 30
0.0
  9
$UCSXDIR
 10
1.0
 20
0.0
 30
0.0
  9
$UCSYDIR
 10
0.0
 20
1.0
 30
0.0
  9
$UCSORTHOREF
  2

  9
$UCSORTHOVIEW
 70
     0
  9
$UCSORGTOP
 10
0.0
 20
0.0
 30
0.0
  9
$UCSORGBOTTOM
 10
0.0
 20
0.0
 30
0.0
  9
$UCSORGLEFT
 10
0.0
 20
0.0
 30
0.0
  9
$UCSORGRIGHT
 10
0.0
 20
0.0
 30
0.0
  9
$UCSORGFRONT
 10
0.0
 20
0.0
 30
0.0
  9
$UCSORGBACK
 10
0.0
 20
0.0
 30
0.0
  9
$PUCSBASE
  2

  9
$PUCSNAME
  2

  9
$PUCSORG
 10
0.0
 20
0.0
 30
0.0
  9
$PUCSXDIR
 10
1.0
 20
0.0
 30
0.0
  9
$PUCSYDIR
 10
0.0
 20
1.0
 30
0.0
  9
$PUCSORTHOREF
  2

  9
$PUCSORTHOVIEW
 70
     0
  9
$PUCSORGTOP
 10
0.0
 20
0.0
 30
0.0
  9
$PUCSORGBOTTOM
 10
0.0
 20
0.0
 30
0.0
  9
$PUCSORGLEFT
 10
0.0
 20
0.0
 30
0.0
  9
$PUCSORGRIGHT
 10
0.0
 20
0.0
 30
0.0
  9
$PUCSORGFRONT
 10
0.0
 20
0.0
 30
0.0
  9
$PUCSORGBACK
 10
0.0
 20
0.0
 30
0.0
  9
$USERI1
 70
     0
  9
$USERI2
 70
     0
  9
$USERI3
 70
     0
  9
$USERI4
 70
     0
  9
$USERI5
 70
     0
  9
$USERR1
 40
0.0
  9
$USERR2
 40
0.0
  9
$USERR3
 40
0.0
  9
$USERR4
 40
0.0
  9
$USERR5
 40
0.0
  9
$WORLDVIEW
 70
     1
  9
$SHADEDGE
 70
     3
  9
$SHADEDIF
 70
    70
  9
$TILEMODE
 70
     1
  9
$MAXACTVP
 70
    64
  9
$PINSBASE
 10
0.0
 20
0.0
 30
0.0
  9
$PLIMCHECK
 70
     0
  9
$PEXTMIN
 10
0.0
 20
0.0
 30
0.0
  9
$PEXTMAX
 10
0.0
 20
0.0
 30
0.0
  9
$PLIMMIN
 10
0.0
 20
0.0
  9
$PLIMMAX
 10
12.0
 20
9.0
  9
$UNITMODE
 70
     0
  9
$VISRETAIN
 70
     1
  9
$PLINEGEN
 70
     0
  9
$PSLTSCALE
 70
     1
  9
$TREEDEPTH
 70
  3020
  9
$CMLSTYLE
  2
Standard
  9
$CMLJUST
 70
     0
  9
$CMLSCALE
 40
20.0
  9
$PROXYGRAPHICS
 70
     1
  9
$MEASUREMENT
 70
     1
  9
$CELWEIGHT
370
    -1
  9
$ENDCAPS
280
     0
  9
$JOINSTYLE
280
     0
  9
$LWDISPLAY
290
     1
  9
$INSUNITS
 70
     4
  9
$HYPERLINKBASE
  1

  9
$STYLESHEET
  1

  9
$XEDIT
290
     1
  9
$CEPSNTYPE
380
     0
  9
$PSTYLEMODE
290
     1
  9
$FINGERPRINTGUID
  2
{B9AE200B-F021-428B-955F-141660E60FC2}
  9
$VERSIONGUID
  2
{E37F62D7-3087-46FF-B54A-50016DE003BC}
  9
$EXTNAMES
290
     1
  9
$PSVPSCALE
 40
0.0
  9
$OLESTARTUP
290
     0
  9
$SORTENTS
280
   127
  9
$INDEXCTL
280
     0
  9
$HIDETEXT
280
     1
  9
$XCLIPFRAME
290
     0
  9
$HALOGAP
280
     0
  9
$OBSCOLOR
 70
   257
  9
$OBSLTYPE
280
     0
  9
$INTERSECTIONDISPLAY
280
     0
  9
$INTERSECTIONCOLOR
 70
   257
  9
$DIMASSOC
280
     2
  9
$PROJECTNAME
  1

  9
$CAMERADISPLAY
290
     0
  9
$LENSLENGTH
 40
50.0
  9
$CAMERAHEIGHT
 40
0.0
  9
$STEPSPERSEC
 40
2.0
  9
$STEPSIZE
 40
6.0
  9
$3DDWFPREC
 40
2.0
  9
$PSOLWIDTH
 40
5.0
  9
$PSOLHEIGHT
 40
80.0
  9
$LOFTANG1
 40
1.570796326794896
  9
$LOFTANG2
 40
1.570796326794896
  9
$LOFTMAG1
 40
0.0
  9
$LOFTMAG2
 40
0.0
  9
$LOFTPARAM
 70
     7
  9
$LOFTNORMALS
280
     1
  9
$LATITUDE
 40
37.795
  9
$LONGITUDE
 40
-122.394
  9
$NORTHDIRECTION
 40
0.0
  9
$TIMEZONE
 70
 -8000
  9
$LIGHTGLYPHDISPLAY
280
     1
  9
$TILEMODELIGHTSYNCH
280
     1
  9
$CMATERIAL
347
ED
  9
$SOLIDHIST
280
     1
  9
$SHOWHIST
280
     1
  9
$DWFFRAME
280
     2
  9
$DGNFRAME
280
     0
  9
$REALWORLDSCALE
290
     1
  9
$INTERFERECOLOR
 62
     1
  9
$INTERFEREOBJVS
345
FA
  9
$INTERFEREVPVS
346
F7
  9
$CSHADOW
280
     0
  9
$SHADOWPLANELOCATION
 40
0.0
  0
ENDSEC
  0
SECTION
  2
CLASSES
  0
CLASS
  1
ACDBDICTIONARYWDFLT
  2
AcDbDictionaryWithDefault
  3
ObjectDBX Classes
 90
        0
 91
        1
280
     0
281
     0
  0
CLASS
  1
DICTIONARYVAR
  2
AcDbDictionaryVar
  3
ObjectDBX Classes
 90
        0
 91
        3
280
     0
281
     0
  0
CLASS
  1
TABLESTYLE
  2
AcDbTableStyle
  3
ObjectDBX Classes
 90
     4095
 91
        1
280
     0
281
     0
  0
CLASS
  1
MATERIAL
  2
AcDbMaterial
  3
ObjectDBX Classes
 90
     1024
 91
        3
280
     0
281
     0
  0
CLASS
  1
VISUALSTYLE
  2
AcDbVisualStyle
  3
ObjectDBX Classes
 90
     4095
 91
       16
280
     0
281
     0
  0
CLASS
  1
SORTENTSTABLE
  2
AcDbSortentsTable
  3
ObjectDBX Classes
 90
        0
 91
        1
280
     0
281
     0
  0
CLASS
  1
DIMASSOC
  2
AcDbDimAssoc
  3
"AcDbDimAssoc|Product Desc:     AcDim ARX App For Dimension|Company:          Autodesk, Inc.|WEB Address:      www.autodesk.com"
 90
        0
 91
        5
280
     0
281
     0
  0
ENDSEC
  0
SECTION
  2
TABLES
  0
TABLE
  2
VPORT
  5
8
330
0
100
AcDbSymbolTable
 70
     1
  0
VPORT
  5
EB
330
8
100
AcDbSymbolTableRecord
100
AcDbViewportTableRecord
  2
*Active
 70
     0
 10
0.0
 20
0.0
 11
1.0
 21
1.0
 12
972.227758533546
 22
870.4639969678973
 13
0.0
 23
0.0
 14
10.0
 24
10.0
 15
10.0
 25
10.0
 16
0.0
 26
0.0
 36
1.0
 17
0.0
 27
0.0
 37
0.0
 40
490.9490341423311
 41
2.223150357995226
 42
50.0
 43
0.0
 44
0.0
 50
0.0
 51
0.0
 71
     0
 72
  1000
 73
     1
 74
     3
 75
     0
 76
     0
 77
     0
 78
     0
281
     0
 65
     1
110
0.0
120
0.0
130
0.0
111
1.0
121
0.0
131
0.0
112
0.0
122
1.0
132
0.0
 79
     0
146
0.0
348
F6
 60
     2
 61
     5
292
     1
282
     1
141
0.0
142
0.0
 63
   250
421
  3355443
  0
ENDTAB
  0
TABLE
  2
LTYPE
  5
5
330
0
100
AcDbSymbolTable
 70
     3
  0
LTYPE
  5
14
330
5
100
AcDbSymbolTableRecord
100
AcDbLinetypeTableRecord
  2
ByBlock
 70
     0
  3

 72
    65
 73
     0
 40
0.0
  0
LTYPE
  5
15
330
5
100
AcDbSymbolTableRecord
100
AcDbLinetypeTableRecord
  2
ByLayer
 70
     0
  3

 72
    65
 73
     0
 40
0.0
  0
LTYPE
  5
16
330
5
100
AcDbSymbolTableRecord
100
AcDbLinetypeTableRecord
  2
Continuous
 70
     0
  3
Solid line
 72
    65
 73
     0
 40
0.0
  0
LTYPE
  5
12A
330
5
100
AcDbSymbolTableRecord
100
AcDbLinetypeTableRecord
  2
ACAD_ISO02W100
 70
     0
  3
ISO dash __ __ __ __ __ __ __ __ __ __ __ __ __
 72
    65
 73
     2
 40
15.0
 49
12.0
 74
     0
 49
-3.0
 74
     0
  0
LTYPE
  5
12B
330
5
100
AcDbSymbolTableRecord
100
AcDbLinetypeTableRecord
  2
ACAD_ISO04W100
 70
     0
  3
ISO long-dash dot ____ . ____ . ____ . ____ . _
 72
    65
 73
     4
 40
30.0
 49
24.0
 74
     0
 49
-3.0
 74
     0
 49
0.0
 74
     0
 49
-3.0
 74
     0
  0
ENDTAB
  0
TABLE
  2
LAYER
  5
2
102
{ACAD_XDICTIONARY
360
12C
102
}
330
0
100
AcDbSymbolTable
 70
     7
  0
LAYER
  5
10
330
2
100
AcDbSymbolTableRecord
100
AcDbLayerTableRecord
  2
0
 70
     0
 62
     7
  6
Continuous
370
    -3
390
F
347
EF
  0
LAYER
  5
123
330
2
100
AcDbSymbolTableRecord
100
AcDbLayerTableRecord
  2
dim
 70
     0
 62
     7
  6
Continuous
370
    -3
390
F
347
EF
1001
AcAecLayerStandard
1000

1000

  0
LAYER
  5
125
330
2
100
AcDbSymbolTableRecord
100
AcDbLayerTableRecord
  2
dash
 70
     0
 62
     6
  6
ACAD_ISO02W100
370
    -3
390
F
347
EF
1001
AcAecLayerStandard
1000

1000

  0
LAYER
  5
126
330
2
100
AcDbSymbolTableRecord
100
AcDbLayerTableRecord
  2
center
 70
     0
 62
     1
  6
ACAD_ISO04W100
370
    -3
390
F
347
EF
1001
AcAecLayerStandard
1000

1000

  0
LAYER
  5
127
330
2
100
AcDbSymbolTableRecord
100
AcDbLayerTableRecord
  2
con
 70
     0
 62
     7
  6
Continuous
370
    30
390
F
347
EF
1001
AcAecLayerStandard
1000

1000

  0
LAYER
  5
19F
330
2
100
AcDbSymbolTableRecord
100
AcDbLayerTableRecord
  2
Defpoints
 70
     0
 62
     7
  6
Continuous
290
     0
370
    -3
390
F
347
EF
  0
LAYER
  5
608
330
2
100
AcDbSymbolTableRecord
100
AcDbLayerTableRecord
  2
图层1
 70
     0
 62
     7
  6
ACAD_ISO02W100
370
    -3
390
F
347
EF
1001
AcAecLayerStandard
1000

1000

  0
ENDTAB
  0
TABLE
  2
STYLE
  5
3
330
0
100
AcDbSymbolTable
 70
     2
  0
STYLE
  5
11
330
3
100
AcDbSymbolTableRecord
100
AcDbTextStyleTableRecord
  2
Standard
 70
     0
 40
0.0
 41
1.0
 50
0.0
 71
     0
 42
2.5
  3
txt
  4
gbcbig.shx
  0
STYLE
  5
129
330
3
100
AcDbSymbolTableRecord
100
AcDbTextStyleTableRecord
  2

 70
     1
 40
0.0
 41
1.0
 50
0.0
 71
     0
 42
2.5
  3
ltypeshp.shx
  4

  0
ENDTAB
  0
TABLE
  2
VIEW
  5
6
330
0
100
AcDbSymbolTable
 70
     0
  0
ENDTAB
  0
TABLE
  2
UCS
  5
7
330
0
100
AcDbSymbolTable
 70
     0
  0
ENDTAB
  0
TABLE
  2
APPID
  5
9
330
0
100
AcDbSymbolTable
 70
     4
  0
APPID
  5
12
330
9
100
AcDbSymbolTableRecord
100
AcDbRegAppTableRecord
  2
ACAD
 70
     0
  0
APPID
  5
9E
330
9
100
AcDbSymbolTableRecord
100
AcDbRegAppTableRecord
  2
ACAD_PSEXT
 70
     0
  0
APPID
  5
124
330
9
100
AcDbSymbolTableRecord
100
AcDbRegAppTableRecord
  2
AcAecLayerStandard
 70
     0
  0
APPID
  5
130
330
9
100
AcDbSymbolTableRecord
100
AcDbRegAppTableRecord
  2
ACAD_EXEMPT_FROM_CAD_STANDARDS
 70
     0
  0
ENDTAB
  0
TABLE
  2
DIMSTYLE
  5
A
330
0
100
AcDbSymbolTable
 70
     1
100
AcDbDimStyleTable
 71
     1
340
27
  0
DIMSTYLE
105
27
102
{ACAD_REACTORS
330
3A0
330
6EC
330
706
330
72A
330
744
330
75E
330
782
330
79C
102
}
330
A
100
AcDbSymbolTableRecord
100
AcDbDimStyleTableRecord
  2
ISO-25
 70
     0
 41
7.5
 42
0.625
 43
3.75
 44
1.25
 73
     0
 74
     0
 78
     8
140
7.5
141
2.5
143
0.03937007874016
147
0.625
171
     3
172
     1
271
     2
272
     2
274
     3
278
    44
283
     0
284
     8
340
11
  0
ENDTAB
  0
TABLE
  2
BLOCK_RECORD
  5
1
330
0
100
AcDbSymbolTable
 70
     9
  0
BLOCK_RECORD
  5
1F
102
{ACAD_XDICTIONARY
360
14B
102
}
330
1
100
AcDbSymbolTableRecord
100
AcDbBlockTableRecord
  2
*Model_Space
340
22
 70
     0
280
     1
281
     0
  0
BLOCK_RECORD
  5
D2
330
1
100
AcDbSymbolTableRecord
100
AcDbBlockTableRecord
  2
*Paper_Space
340
D3
 70
     0
280
     1
281
     0
  0
BLOCK_RECORD
  5
D6
330
1
100
AcDbSymbolTableRecord
100
AcDbBlockTableRecord
  2
*Paper_Space0
340
D7
 70
     0
280
     1
281
     0
  0
BLOCK_RECORD
  5
3A1
330
1
100
AcDbSymbolTableRecord
100
AcDbBlockTableRecord
  2
*D1
340
0
 70
     0
280
     1
281
     0
  0
BLOCK_RECORD
  5
6ED
330
1
100
AcDbSymbolTableRecord
100
AcDbBlockTableRecord
  2
*D2
340
0
 70
     0
280
     1
281
     0
  0
BLOCK_RECORD
  5
707
330
1
100
AcDbSymbolTableRecord
100
AcDbBlockTableRecord
  2
*D3
340
0
 70
     0
280
     1
281
     0
  0
BLOCK_RECORD
  5
72B
330
1
100
AcDbSymbolTableRecord
100
AcDbBlockTableRecord
  2
*D4
340
0
 70
     0
280
     1
281
     0
  0
BLOCK_RECORD
  5
745
330
1
100
AcDbSymbolTableRecord
100
AcDbBlockTableRecord
  2
*D5
340
0
 70
     0
280
     1
281
     0
  0
BLOCK_RECORD
  5
75F
330
1
100
AcDbSymbolTableRecord
100
AcDbBlockTableRecord
  2
*D6
340
0
 70
     0
280
     1
281
     0
  0
BLOCK_RECORD
  5
783
330
1
100
AcDbSymbolTableRecord
100
AcDbBlockTableRecord
  2
*D7
340
0
 70
     0
280
     1
281
     0
  0
BLOCK_RECORD
  5
79D
330
1
100
AcDbSymbolTableRecord
100
AcDbBlockTableRecord
  2
*D8
340
0
 70
     0
280
     1
281
     0
  0
ENDTAB
  0
ENDSEC
  0
SECTION
  2
BLOCKS
  0
BLOCK
  5
20
330
1F
100
AcDbEntity
  8
0
100
AcDbBlockBegin
  2
*Model_Space
 70
     0
 10
0.0
 20
0.0
 30
0.0
  3
*Model_Space
  1

  0
ENDBLK
  5
21
330
1F
100
AcDbEntity
  8
0
100
AcDbBlockEnd
  0
BLOCK
  5
D4
330
D2
100
AcDbEntity
 67
     1
  8
0
100
AcDbBlockBegin
  2
*Paper_Space
 70
     0
 10
0.0
 20
0.0
 30
0.0
  3
*Paper_Space
  1

  0
ENDBLK
  5
D5
330
D2
100
AcDbEntity
 67
     1
  8
0
100
AcDbBlockEnd
  0
BLOCK
  5
D8
330
D6
100
AcDbEntity
 67
     1
  8
0
100
AcDbBlockBegin
  2
*Paper_Space0
 70
     0
 10
0.0
 20
0.0
 30
0.0
  3
*Paper_Space0
  1

  0
ENDBLK
  5
D9
330
D6
100
AcDbEntity
 67
     1
  8
0
100
AcDbBlockEnd
  0
BLOCK
  5
3AA
330
3A1
100
AcDbEntity
  8
0
100
AcDbBlockBegin
  2
*D1
 70
     1
 10
0.0
 20
0.0
 30
0.0
  3
*D1
  1

  0
LINE
  5
50F
330
3A1
100
AcDbEntity
  8
dim
 62
     0
370
    -2
100
AcDbLine
 10
978.7754889088198
 20
980.5630122915339
 30
0.0
 11
986.275344367104
 21
980.5164493787387
 31
0.0
  0
LINE
  5
510
330
3A1
100
AcDbEntity
  8
dim
 62
     0
370
    -2
100
AcDbLine
 10
1044.274226577833
 20
980.1563628531225
 30
0.0
 11
1051.774082036117
 21
980.1097999403276
 31
0.0
  0
MTEXT
  5
511
330
3A1
100
AcDbEntity
  8
dim
 62
     0
100
AcDbMText
 10
961.5257863554413
 20
980.6701072082567
 30
0.0
 40
7.5
 41
0.0
 46
0.0
 71
     5
 72
     1
  1
{\H1.4x;%%C1\H0.7x;\S11/16;\H1.4286x;"}
 11
0.9999807277711976
 21
-0.0062083883726942
 31
0.0
 73
     1
 44
1.0
  0
LINE
  5
512
330
3A1
100
AcDbEntity
  8
dim
 62
     0
370
    -2
100
AcDbLine
 10
1036.774371119549
 20
980.2029257659178
 30
0.0
 11
993.7751998253878
 21
980.4698864659437
 31
0.0
  0
SOLID
  5
513
330
3A1
100
AcDbEntity
  8
dim
 62
     0
100
AcDbTrace
 10
1044.281987063299
 20
981.4063387628367
 30
0.0
 11
1044.266466092367
 21
978.9063869434087
 31
0.0
 12
1036.774371119549
 22
980.2029257659178
 32
0.0
 13
1036.774371119549
 23
980.2029257659178
 33
0.0
  0
SOLID
  5
514
330
3A1
100
AcDbEntity
  8
dim
 62
     0
100
AcDbTrace
 10
986.2831048525697
 20
981.7664252884528
 30
0.0
 11
986.2675838816381
 21
979.2664734690248
 31
0.0
 12
993.7751998253878
 22
980.4698864659437
 32
0.0
 13
993.7751998253878
 23
980.4698864659437
 33
0.0
  0
POINT
  5
515
330
3A1
100
AcDbEntity
  8
Defpoints
 62
     0
100
AcDbPoint
 10
993.7751998253878
 20
980.4698864659437
 30
0.0
  0
POINT
  5
516
330
3A1
100
AcDbEntity
  8
Defpoints
 62
     0
100
AcDbPoint
 10
1036.774371119549
 20
980.2029257659178
 30
0.0
  0
ENDBLK
  5
3AB
330
3A1
100
AcDbEntity
  8
0
100
AcDbBlockEnd
  0
BLOCK
  5
6F8
330
6ED
100
AcDbEntity
  8
0
100
AcDbBlockBegin
  2
*D2
 70
     1
 10
0.0
 20
0.0
 30
0.0
  3
*D2
  1

  0
LINE
  5
7DE
330
6ED
100
AcDbEntity
  8
Defpoints
 62
     0
370
    -2
100
AcDbLine
 10
810.2747854724679
 20
1039.711406115931
 30
0.0
 11
810.2747854724679
 21
698.6766033562112
 31
0.0
  0
LINE
  5
7DF
330
6ED
100
AcDbEntity
  8
Defpoints
 62
     0
370
    -2
100
AcDbLine
 10
1220.274785472468
 20
784.7114061159308
 30
0.0
 11
1220.274785472468
 21
698.6766033562112
 31
0.0
  0
LINE
  5
7E0
330
6ED
100
AcDbEntity
  8
Defpoints
 62
     0
370
    -2
100
AcDbLine
 10
817.7747854724678
 20
699.9266033562112
 30
0.0
 11
1007.149785472468
 21
699.9266033562112
 31
0.0
  0
LINE
  5
7E1
330
6ED
100
AcDbEntity
  8
Defpoints
 62
     0
370
    -2
100
AcDbLine
 10
1212.774785472468
 20
699.9266033562112
 30
0.0
 11
1023.399785472468
 21
699.9266033562112
 31
0.0
  0
SOLID
  5
7E2
330
6ED
100
AcDbEntity
  8
Defpoints
 62
     0
100
AcDbTrace
 10
817.7747854724678
 20
701.1766033562111
 30
0.0
 11
817.7747854724678
 21
698.6766033562112
 31
0.0
 12
810.2747854724679
 22
699.9266033562112
 32
0.0
 13
810.2747854724679
 23
699.9266033562112
 33
0.0
  0
SOLID
  5
7E3
330
6ED
100
AcDbEntity
  8
Defpoints
 62
     0
100
AcDbTrace
 10
1212.774785472468
 20
701.1766033562111
 30
0.0
 11
1212.774785472468
 21
698.6766033562112
 31
0.0
 12
1220.274785472468
 22
699.9266033562112
 32
0.0
 13
1220.274785472468
 23
699.9266033562112
 33
0.0
  0
MTEXT
  5
7E4
330
6ED
100
AcDbEntity
  8
Defpoints
 62
     0
100
AcDbMText
 10
1015.274785472468
 20
699.9266033562112
 30
0.0
 40
7.5
 41
0.0
 46
0.0
 71
     5
 72
     1
  1
16"
 73
     1
 44
1.0
  0
POINT
  5
7E5
330
6ED
100
AcDbEntity
  8
Defpoints
 62
     0
100
AcDbPoint
 10
810.2747854724679
 20
1040.336406115931
 30
0.0
  0
POINT
  5
7E6
330
6ED
100
AcDbEntity
  8
Defpoints
 62
     0
100
AcDbPoint
 10
1220.274785472468
 20
785.3364061159307
 30
0.0
  0
POINT
  5
7E7
330
6ED
100
AcDbEntity
  8
Defpoints
 62
     0
100
AcDbPoint
 10
1220.274785472468
 20
699.9266033562112
 30
0.0
  0
ENDBLK
  5
6F9
330
6ED
100
AcDbEntity
  8
0
100
AcDbBlockEnd
  0
BLOCK
  5
712
330
707
100
AcDbEntity
  8
0
100
AcDbBlockBegin
  2
*D3
 70
     1
 10
0.0
 20
0.0
 30
0.0
  3
*D3
  1

  0
LINE
  5
7D4
330
707
100
AcDbEntity
  8
Defpoints
 62
     0
370
    -2
100
AcDbLine
 10
785.2747854724681
 20
759.7114061159309
 30
0.0
 11
785.2747854724681
 21
670.618149897416
 31
0.0
  0
LINE
  5
7D5
330
707
100
AcDbEntity
  8
Defpoints
 62
     0
370
    -2
100
AcDbLine
 10
1245.274785472468
 20
759.7114061159309
 30
0.0
 11
1245.274785472468
 21
670.618149897416
 31
0.0
  0
LINE
  5
7D6
330
707
100
AcDbEntity
  8
Defpoints
 62
     0
370
    -2
100
AcDbLine
 10
792.7747854724681
 20
671.868149897416
 30
0.0
 11
1007.149785472468
 21
671.868149897416
 31
0.0
  0
LINE
  5
7D7
330
707
100
AcDbEntity
  8
Defpoints
 62
     0
370
    -2
100
AcDbLine
 10
1237.774785472468
 20
671.868149897416
 30
0.0
 11
1023.399785472468
 21
671.868149897416
 31
0.0
  0
SOLID
  5
7D8
330
707
100
AcDbEntity
  8
Defpoints
 62
     0
100
AcDbTrace
 10
792.7747854724681
 20
673.118149897416
 30
0.0
 11
792.7747854724681
 21
670.618149897416
 31
0.0
 12
785.2747854724681
 22
671.868149897416
 32
0.0
 13
785.2747854724681
 23
671.868149897416
 33
0.0
  0
SOLID
  5
7D9
330
707
100
AcDbEntity
  8
Defpoints
 62
     0
100
AcDbTrace
 10
1237.774785472468
 20
673.118149897416
 30
0.0
 11
1237.774785472468
 21
670.618149897416
 31
0.0
 12
1245.274785472468
 22
671.868149897416
 32
0.0
 13
1245.274785472468
 23
671.868149897416
 33
0.0
  0
MTEXT
  5
7DA
330
707
100
AcDbEntity
  8
Defpoints
 62
     0
100
AcDbMText
 10
1015.274785472468
 20
671.868149897416
 30
0.0
 40
7.5
 41
0.0
 46
0.0
 71
     5
 72
     1
  1
18"
 73
     1
 44
1.0
  0
POINT
  5
7DB
330
707
100
AcDbEntity
  8
Defpoints
 62
     0
100
AcDbPoint
 10
785.2747854724681
 20
760.336406115931
 30
0.0
  0
POINT
  5
7DC
330
707
100
AcDbEntity
  8
Defpoints
 62
     0
100
AcDbPoint
 10
1245.274785472468
 20
760.336406115931
 30
0.0
  0
POINT
  5
7DD
330
707
100
AcDbEntity
  8
Defpoints
 62
     0
100
AcDbPoint
 10
1245.274785472468
 20
671.868149897416
 30
0.0
  0
ENDBLK
  5
713
330
707
100
AcDbEntity
  8
0
100
AcDbBlockEnd
  0
BLOCK
  5
736
330
72B
100
AcDbEntity
  8
0
100
AcDbBlockBegin
  2
*D4
 70
     1
 10
0.0
 20
0.0
 30
0.0
  3
*D4
  1

  0
LINE
  5
7F2
330
72B
100
AcDbEntity
  8
Defpoints
 62
     0
370
    -2
100
AcDbLine
 10
794.649785472468
 20
1075.336406115931
 30
0.0
 11
714.4704026099263
 21
1075.336406115931
 31
0.0
  0
LINE
  5
7F3
330
72B
100
AcDbEntity
  8
Defpoints
 62
     0
370
    -2
100
AcDbLine
 10
794.6497854724681
 20
750.3364061159309
 30
0.0
 11
714.4704026099262
 21
750.3364061159311
 31
0.0
  0
LINE
  5
7F4
330
72B
100
AcDbEntity
  8
Defpoints
 62
     0
370
    -2
100
AcDbLine
 10
715.7204026099263
 20
1067.836406115931
 30
0.0
 11
715.7204026099263
 21
935.9614061159311
 31
0.0
  0
LINE
  5
7F5
330
72B
100
AcDbEntity
  8
Defpoints
 62
     0
370
    -2
100
AcDbLine
 10
715.7204026099261
 20
757.8364061159311
 30
0.0
 11
715.7204026099263
 21
889.711406115931
 31
0.0
  0
SOLID
  5
7F6
330
72B
100
AcDbEntity
  8
Defpoints
 62
     0
100
AcDbTrace
 10
714.4704026099263
 20
1067.836406115931
 30
0.0
 11
716.9704026099262
 21
1067.836406115931
 31
0.0
 12
715.7204026099263
 22
1075.336406115931
 32
0.0
 13
715.7204026099263
 23
1075.336406115931
 33
0.0
  0
SOLID
  5
7F7
330
72B
100
AcDbEntity
  8
Defpoints
 62
     0
100
AcDbTrace
 10
714.4704026099262
 20
757.8364061159311
 30
0.0
 11
716.9704026099261
 21
757.8364061159311
 31
0.0
 12
715.7204026099261
 22
750.3364061159311
 32
0.0
 13
715.7204026099261
 23
750.3364061159311
 33
0.0
  0
MTEXT
  5
7F8
330
72B
100
AcDbEntity
  8
Defpoints
 62
     0
100
AcDbMText
 10
715.720402609926
 20
912.8364061159311
 30
0.0
 40
7.5
 41
0.0
 46
0.0
 71
     5
 72
     1
  1
12-7/8"
 11
0.0000000000000001
 21
1.0
 31
0.0
 73
     1
 44
1.0
  0
POINT
  5
7F9
330
72B
100
AcDbEntity
  8
Defpoints
 62
     0
100
AcDbPoint
 10
795.2747854724679
 20
1075.336406115931
 30
0.0
  0
POINT
  5
7FA
330
72B
100
AcDbEntity
  8
Defpoints
 62
     0
100
AcDbPoint
 10
795.2747854724681
 20
750.3364061159309
 30
0.0
  0
POINT
  5
7FB
330
72B
100
AcDbEntity
  8
Defpoints
 62
     0
100
AcDbPoint
 10
715.7204026099261
 20
750.3364061159311
 30
0.0
  0
ENDBLK
  5
737
330
72B
100
AcDbEntity
  8
0
100
AcDbBlockEnd
  0
BLOCK
  5
750
330
745
100
AcDbEntity
  8
0
100
AcDbBlockBegin
  2
*D5
 70
     1
 10
0.0
 20
0.0
 30
0.0
  3
*D5
  1

  0
LINE
  5
806
330
745
100
AcDbEntity
  8
Defpoints
 62
     0
370
    -2
100
AcDbLine
 10
1014.649785472468
 20
1050.336406115931
 30
0.0
 11
758.2976220817008
 21
1050.336406115931
 31
0.0
  0
LINE
  5
807
330
745
100
AcDbEntity
  8
Defpoints
 62
     0
370
    -2
100
AcDbLine
 10
1014.649785472468
 20
775.3364061159309
 30
0.0
 11
758.2976220817008
 21
775.336406115931
 31
0.0
  0
LINE
  5
808
330
745
100
AcDbEntity
  8
Defpoints
 62
     0
370
    -2
100
AcDbLine
 10
759.5476220817008
 20
1042.836406115931
 30
0.0
 11
759.5476220817008
 21
935.3364061159309
 31
0.0
  0
LINE
  5
809
330
745
100
AcDbEntity
  8
Defpoints
 62
     0
370
    -2
100
AcDbLine
 10
759.5476220817008
 20
782.836406115931
 30
0.0
 11
759.5476220817008
 21
890.336406115931
 31
0.0
  0
SOLID
  5
80A
330
745
100
AcDbEntity
  8
Defpoints
 62
     0
100
AcDbTrace
 10
758.2976220817008
 20
1042.836406115931
 30
0.0
 11
760.7976220817008
 21
1042.836406115931
 31
0.0
 12
759.5476220817008
 22
1050.336406115931
 32
0.0
 13
759.5476220817008
 23
1050.336406115931
 33
0.0
  0
SOLID
  5
80B
330
745
100
AcDbEntity
  8
Defpoints
 62
     0
100
AcDbTrace
 10
758.2976220817008
 20
782.836406115931
 30
0.0
 11
760.7976220817008
 21
782.836406115931
 31
0.0
 12
759.5476220817008
 22
775.336406115931
 32
0.0
 13
759.5476220817008
 23
775.336406115931
 33
0.0
  0
MTEXT
  5
80C
330
745
100
AcDbEntity
  8
Defpoints
 62
     0
100
AcDbMText
 10
759.5476220817006
 20
912.8364061159311
 30
0.0
 40
7.5
 41
0.0
 46
0.0
 71
     5
 72
     1
  1
10-7/8"
 11
0.0000000000000001
 21
1.0
 31
0.0
 73
     1
 44
1.0
  0
POINT
  5
80D
330
745
100
AcDbEntity
  8
Defpoints
 62
     0
100
AcDbPoint
 10
1015.274785472468
 20
1050.336406115931
 30
0.0
  0
POINT
  5
80E
330
745
100
AcDbEntity
  8
Defpoints
 62
     0
100
AcDbPoint
 10
1015.274785472468
 20
775.3364061159309
 30
0.0
  0
POINT
  5
80F
330
745
100
AcDbEntity
  8
Defpoints
 62
     0
100
AcDbPoint
 10
759.5476220817008
 20
775.336406115931
 30
0.0
  0
ENDBLK
  5
751
330
745
100
AcDbEntity
  8
0
100
AcDbBlockEnd
  0
BLOCK
  5
76A
330
75F
100
AcDbEntity
  8
0
100
AcDbBlockBegin
  2
*D6
 70
     1
 10
0.0
 20
0.0
 30
0.0
  3
*D6
  1

  0
LINE
  5
810
330
75F
100
AcDbEntity
  8
Defpoints
 62
     0
370
    -2
100
AcDbLine
 10
1014.649785472468
 20
579.5958762183287
 30
0.0
 11
735.8495347863445
 21
579.5958762183288
 31
0.0
  0
LINE
  5
811
330
75F
100
AcDbEntity
  8
Defpoints
 62
     0
370
    -2
100
AcDbLine
 10
1014.649785472468
 20
384.5958762183288
 30
0.0
 11
735.8495347863445
 21
384.5958762183289
 31
0.0
  0
LINE
  5
812
330
75F
100
AcDbEntity
  8
Defpoints
 62
     0
370
    -2
100
AcDbLine
 10
737.0995347863445
 20
572.0958762183288
 30
0.0
 11
737.0995347863445
 21
501.4708762183288
 31
0.0
  0
LINE
  5
813
330
75F
100
AcDbEntity
  8
Defpoints
 62
     0
370
    -2
100
AcDbLine
 10
737.0995347863445
 20
392.0958762183289
 30
0.0
 11
737.0995347863445
 21
462.7208762183288
 31
0.0
  0
SOLID
  5
814
330
75F
100
AcDbEntity
  8
Defpoints
 62
     0
100
AcDbTrace
 10
735.8495347863445
 20
572.0958762183288
 30
0.0
 11
738.3495347863445
 21
572.0958762183288
 31
0.0
 12
737.0995347863445
 22
579.5958762183288
 32
0.0
 13
737.0995347863445
 23
579.5958762183288
 33
0.0
  0
SOLID
  5
815
330
75F
100
AcDbEntity
  8
Defpoints
 62
     0
100
AcDbTrace
 10
735.8495347863445
 20
392.0958762183289
 30
0.0
 11
738.3495347863445
 21
392.0958762183289
 31
0.0
 12
737.0995347863445
 22
384.5958762183289
 32
0.0
 13
737.0995347863445
 23
384.5958762183289
 33
0.0
  0
MTEXT
  5
816
330
75F
100
AcDbEntity
  8
Defpoints
 62
     0
100
AcDbMText
 10
737.0995347863444
 20
482.0958762183289
 30
0.0
 40
7.5
 41
0.0
 46
0.0
 71
     5
 72
     1
  1
7-1/2"
 11
0.0000000000000001
 21
1.0
 31
0.0
 73
     1
 44
1.0
  0
POINT
  5
817
330
75F
100
AcDbEntity
  8
Defpoints
 62
     0
100
AcDbPoint
 10
1015.274785472468
 20
579.5958762183287
 30
0.0
  0
POINT
  5
818
330
75F
100
AcDbEntity
  8
Defpoints
 62
     0
100
AcDbPoint
 10
1015.274785472468
 20
384.5958762183288
 30
0.0
  0
POINT
  5
819
330
75F
100
AcDbEntity
  8
Defpoints
 62
     0
100
AcDbPoint
 10
737.0995347863445
 20
384.5958762183289
 30
0.0
  0
ENDBLK
  5
76B
330
75F
100
AcDbEntity
  8
0
100
AcDbBlockEnd
  0
BLOCK
  5
78E
330
783
100
AcDbEntity
  8
0
100
AcDbBlockBegin
  2
*D7
 70
     1
 10
0.0
 20
0.0
 30
0.0
  3
*D7
  1

  0
LINE
  5
842
330
783
100
AcDbEntity
  8
Defpoints
 62
     0
370
    -2
100
AcDbLine
 10
817.774785472468
 20
913.4614061159307
 30
0.0
 11
817.774785472468
 21
914.0864061159307
 31
0.0
  0
LINE
  5
843
330
783
100
AcDbEntity
  8
Defpoints
 62
     0
370
    -2
100
AcDbLine
 10
1212.774785472468
 20
913.4614061159307
 30
0.0
 11
1212.774785472468
 21
914.0864061159307
 31
0.0
  0
LINE
  5
844
330
783
100
AcDbEntity
  8
Defpoints
 62
     0
370
    -2
100
AcDbLine
 10
825.2747854724679
 20
912.8364061159308
 30
0.0
 11
904.6664226010035
 21
912.8364061159308
 31
0.0
  0
LINE
  5
845
330
783
100
AcDbEntity
  8
Defpoints
 62
     0
370
    -2
100
AcDbLine
 10
1205.274785472468
 20
912.8364061159308
 30
0.0
 11
948.4164226010035
 21
912.8364061159308
 31
0.0
  0
SOLID
  5
846
330
783
100
AcDbEntity
  8
Defpoints
 62
     0
100
AcDbTrace
 10
825.2747854724679
 20
914.0864061159307
 30
0.0
 11
825.2747854724679
 21
911.5864061159308
 31
0.0
 12
817.774785472468
 22
912.8364061159308
 32
0.0
 13
817.774785472468
 23
912.8364061159308
 33
0.0
  0
SOLID
  5
847
330
783
100
AcDbEntity
  8
Defpoints
 62
     0
100
AcDbTrace
 10
1205.274785472468
 20
914.0864061159307
 30
0.0
 11
1205.274785472468
 21
911.5864061159308
 31
0.0
 12
1212.774785472468
 22
912.8364061159308
 32
0.0
 13
1212.774785472468
 23
912.8364061159308
 33
0.0
  0
MTEXT
  5
848
330
783
100
AcDbEntity
  8
Defpoints
 62
     0
100
AcDbMText
 10
926.5414226010035
 20
912.8364061159308
 30
0.0
 40
7.5
 41
0.0
 46
0.0
 71
     5
 72
     1
  1
15-1/2"
 73
     1
 44
1.0
  0
POINT
  5
849
330
783
100
AcDbEntity
  8
Defpoints
 62
     0
100
AcDbPoint
 10
817.774785472468
 20
912.8364061159308
 30
0.0
  0
POINT
  5
84A
330
783
100
AcDbEntity
  8
Defpoints
 62
     0
100
AcDbPoint
 10
1212.774785472468
 20
912.8364061159308
 30
0.0
  0
POINT
  5
84B
330
783
100
AcDbEntity
  8
Defpoints
 62
     0
100
AcDbPoint
 10
1212.774785472468
 20
912.8364061159308
 30
0.0
  0
ENDBLK
  5
78F
330
783
100
AcDbEntity
  8
0
100
AcDbBlockEnd
  0
BLOCK
  5
7A8
330
79D
100
AcDbEntity
  8
0
100
AcDbBlockBegin
  2
*D8
 70
     1
 10
0.0
 20
0.0
 30
0.0
  3
*D8
  1

  0
LINE
  5
874
330
79D
100
AcDbEntity
  8
Defpoints
 62
     0
370
    -2
100
AcDbLine
 10
1015.899785472468
 20
1045.336406115931
 30
0.0
 11
1016.524785472468
 21
1045.336406115931
 31
0.0
  0
LINE
  5
875
330
79D
100
AcDbEntity
  8
Defpoints
 62
     0
370
    -2
100
AcDbLine
 10
1015.899785472468
 20
780.3364061159308
 30
0.0
 11
1016.524785472468
 21
780.3364061159308
 31
0.0
  0
LINE
  5
876
330
79D
100
AcDbEntity
  8
Defpoints
 62
     0
370
    -2
100
AcDbLine
 10
1015.274785472469
 20
1037.836406115931
 30
0.0
 11
1015.274785472469
 21
899.5435415039272
 31
0.0
  0
LINE
  5
877
330
79D
100
AcDbEntity
  8
Defpoints
 62
     0
370
    -2
100
AcDbLine
 10
1015.274785472469
 20
787.8364061159309
 30
0.0
 11
1015.274785472469
 21
849.5435415039272
 31
0.0
  0
SOLID
  5
878
330
79D
100
AcDbEntity
  8
Defpoints
 62
     0
100
AcDbTrace
 10
1014.024785472469
 20
1037.836406115931
 30
0.0
 11
1016.524785472468
 21
1037.836406115931
 31
0.0
 12
1015.274785472469
 22
1045.336406115931
 32
0.0
 13
1015.274785472469
 23
1045.336406115931
 33
0.0
  0
SOLID
  5
879
330
79D
100
AcDbEntity
  8
Defpoints
 62
     0
100
AcDbTrace
 10
1014.024785472469
 20
787.8364061159309
 30
0.0
 11
1016.524785472468
 21
787.8364061159309
 31
0.0
 12
1015.274785472469
 22
780.3364061159308
 32
0.0
 13
1015.274785472469
 23
780.3364061159308
 33
0.0
  0
MTEXT
  5
87A
330
79D
100
AcDbEntity
  8
Defpoints
 62
     0
100
AcDbMText
 10
1015.274785472468
 20
874.5435415039274
 30
0.0
 40
7.5
 41
0.0
 46
0.0
 71
     5
 72
     1
  1
10-7/16"
 11
0.0000000000000001
 21
1.0
 31
0.0
 73
     1
 44
1.0
  0
POINT
  5
87B
330
79D
100
AcDbEntity
  8
Defpoints
 62
     0
100
AcDbPoint
 10
1015.274785472468
 20
1045.336406115931
 30
0.0
  0
POINT
  5
87C
330
79D
100
AcDbEntity
  8
Defpoints
 62
     0
100
AcDbPoint
 10
1015.274785472468
 20
780.3364061159308
 30
0.0
  0
POINT
  5
87D
330
79D
100
AcDbEntity
  8
Defpoints
 62
     0
100
AcDbPoint
 10
1015.274785472469
 20
780.3364061159308
 30
0.0
  0
ENDBLK
  5
7A9
330
79D
100
AcDbEntity
  8
0
100
AcDbBlockEnd
  0
ENDSEC
  0
SECTION
  2
ENTITIES
  0
CIRCLE
  5
149
102
{ACAD_REACTORS
330
3B5
102
}
330
1F
100
AcDbEntity
  8
con
100
AcDbCircle
 10
1015.274785472468
 20
980.3364061159308
 30
0.0
 40
21.5
  0
LINE
  5
165
330
1F
100
AcDbEntity
  8
con
100
AcDbLine
 10
990.1329486857179
 20
384.5958762183288
 30
0.0
 11
1040.416622259218
 21
384.5958762183288
 31
0.0
  0
LINE
  5
16D
330
1F
100
AcDbEntity
  8
con
100
AcDbLine
 10
977.9156020072139
 20
549.7387187861574
 30
0.0
 11
980.1339689377227
 21
394.4530336505004
 31
0.0
  0
LINE
  5
16E
330
1F
100
AcDbEntity
  8
con
100
AcDbLine
 10
1052.633968937723
 20
549.7387187861574
 30
0.0
 11
1050.415602007213
 21
394.4530336505004
 31
0.0
  0
ARC
  5
177
330
1F
100
AcDbEntity
  8
con
100
AcDbCircle
 10
990.1329486857179
 20
394.5958762183289
 30
0.0
 40
10.0
100
AcDbArc
 50
180.8184554616886
 51
270.0
  0
ARC
  5
178
330
1F
100
AcDbEntity
  8
con
100
AcDbCircle
 10
1040.416622259218
 20
394.5958762183289
 30
0.0
 40
10.0
100
AcDbArc
 50
270.0
 51
359.1815445383113
  0
ARC
  5
179
330
1F
100
AcDbEntity
  8
con
100
AcDbCircle
 10
967.9166222592188
 20
549.5958762183287
 30
0.0
 40
10.0
100
AcDbArc
 50
0.8184554616886604
 51
90.0
  0
ARC
  5
17B
330
1F
100
AcDbEntity
  8
con
100
AcDbCircle
 10
1062.632948685718
 20
549.5958762183287
 30
0.0
 40
10.0
100
AcDbArc
 50
89.99999999999998
 51
179.1815445383113
  0
SPLINE
  5
196
330
1F
100
AcDbEntity
  8
图层1
100
AcDbSpline
210
0.0
220
0.0
230
1.0
 70
     8
 71
     3
 72
     9
 73
     5
 74
     0
 42
0.0000000001
 43
0.0000000001
 40
0.0
 40
0.0
 40
0.0
 40
0.0
 40
126.9867923727518
 40
233.6996593918776
 40
233.6996593918776
 40
233.6996593918776
 40
233.6996593918776
 10
810.2747854724679
 20
579.5958762183287
 30
0.0
 10
832.8259448269182
 20
538.1886039757898
 30
0.0
 10
865.8162838776293
 20
461.9848883088643
 30
0.0
 10
942.6034321080507
 20
440.5429936647448
 30
0.0
 10
979.5812058041974
 20
433.1464529972938
 30
0.0
  0
LINE
  5
199
330
1F
100
AcDbEntity
  8
con
100
AcDbLine
 10
785.274785472468
 20
559.5958762183287
 30
0.0
 11
967.9166222592188
 21
559.5958762183287
 31
0.0
  0
SPLINE
  5
19D
330
1F
100
AcDbEntity
  8
con
100
AcDbSpline
210
0.0
220
0.0
230
1.0
 70
     8
 71
     3
 72
     9
 73
     5
 74
     0
 42
0.0000000001
 43
0.0000000001
 40
4.716370385381606
 40
4.716370385381606
 40
4.716370385381606
 40
4.716370385381606
 40
126.986792372752
 40
246.6905856536569
 40
246.6905856536569
 40
246.6905856536569
 40
246.6905856536569
 10
805.8278567469594
 20
559.5958762183609
 30
0.0
 10
823.4522633293639
 20
519.9414965617894
 30
0.0
 10
859.138348565056
 20
442.5256766165543
 30
0.0
 10
937.837199032654
 20
421.6197586501364
 30
0.0
 10
979.8360574829274
 20
415.3068354861891
 30
0.0
  0
LINE
  5
24A
330
1F
100
AcDbEntity
  8
图层1
100
AcDbLine
 10
979.6604997581825
 20
433.1464529972939
 30
0.0
 11
1050.889071186754
 21
433.1464529972939
 31
0.0
  0
DIMENSION
  5
3A0
102
{ACAD_XDICTIONARY
360
3AC
102
}
102
{ACAD_REACTORS
330
3B5
102
}
330
1F
100
AcDbEntity
  8
dim
100
AcDbDimension
  2
*D1
 10
1036.774371119549
 20
980.2029257659178
 30
0.0
 11
961.5257863554413
 21
980.6701072082567
 31
0.0
 70
    35
  1
{\H1.4x;%%C1\H0.7x;\S11/16;\H1.4286x;"}
 71
     5
 42
42.99999999999966
 73
     0
 74
     0
 75
     0
  3
ISO-25
100
AcDbDiametricDimension
 15
993.7751998253878
 25
980.4698864659437
 35
0.0
 40
0.0
1001
ACAD
1000
DSTYLE
1002
{
1070
   288
1070
     1
1002
}
  0
LINE
  5
495
330
1F
100
AcDbEntity
  8
con
100
AcDbLine
 10
785.274785472468
 20
559.5958762183287
 30
0.0
 11
785.274785472468
 21
574.5958762183287
 31
0.0
  0
ARC
  5
499
330
1F
100
AcDbEntity
  8
con
100
AcDbCircle
 10
790.2747854724682
 20
574.5958762183287
 30
0.0
 40
5.0
100
AcDbArc
 50
90.0
 51
180.0
  0
LEADER
  5
605
330
1F
100
AcDbEntity
  8
dim
100
AcDbLeader
  3
ISO-25
 73
     0
 40
7.812290127602419
 41
117.2901276024177
 76
     3
 10
1210.818353980423
 20
812.4215466570081
 30
0.0
 10
1187.592567810366
 20
828.5680200421452
 30
0.0
 10
1162.852054015724
 20
828.5680200421452
 30
0.0
340
606
213
0.0
223
3.75
233
0.0
1001
ACAD
1000
DSTYLE
1002
{
1070
   147
1040
0.625
1070
    77
1070
     0
1002
}
  0
MTEXT
  5
606
102
{ACAD_REACTORS
330
605
102
}
330
1F
100
AcDbEntity
  8
dim
100
AcDbMText
 10
1162.227054015724
 20
824.8180200421453
 30
0.0
 40
7.5
 41
0.0
 46
0.0
 71
     9
 72
     1
  1
{\fVerdana|b0|i0|c0|p34;CUT\fVerdana|b0|i0|c134|p34; \fVerdana|b0|i0|c0|p34;ALONG\fVerdana|b0|i0|c134|p34; \fVerdana|b0|i0|c0|p34;THIS\fVerdana|b0|i0|c134|p34; \fVerdana|b0|i0|c0|p34;LINE}
 73
     1
 44
1.0
  0
LINE
  5
6C9
330
1F
100
AcDbEntity
  8
con
100
AcDbLine
 10
1245.274785472468
 20
912.8364061159308
 30
0.0
 11
1245.274785472468
 21
1065.33640611593
 31
0.0
  0
LINE
  5
6CB
330
1F
100
AcDbEntity
  8
con
100
AcDbLine
 10
1235.274785472468
 20
1075.33640611593
 30
0.0
 11
795.2747854724679
 21
1075.336406115931
 31
0.0
  0
LINE
  5
6CC
330
1F
100
AcDbEntity
  8
con
100
AcDbLine
 10
785.274785472468
 20
1065.336406115931
 30
0.0
 11
785.2747854724681
 21
760.336406115931
 31
0.0
  0
LINE
  5
6CD
102
{ACAD_REACTORS
330
743
102
}
330
1F
100
AcDbEntity
  8
con
100
AcDbLine
 10
795.2747854724681
 20
750.3364061159309
 30
0.0
 11
1235.274785472468
 21
750.3364061159309
 31
0.0
  0
LINE
  5
6CE
330
1F
100
AcDbEntity
  8
con
100
AcDbLine
 10
1245.274785472468
 20
760.336406115931
 30
0.0
 11
1245.274785472468
 21
912.8364061159308
 31
0.0
  0
LINE
  5
6D1
330
1F
100
AcDbEntity
  8
con
100
AcDbLine
 10
1220.274785472468
 20
912.8364061159308
 30
0.0
 11
1220.274785472468
 21
1040.336406115931
 31
0.0
  0
LINE
  5
6D2
330
1F
100
AcDbEntity
  8
con
100
AcDbLine
 10
1210.274785472468
 20
1050.336406115931
 30
0.0
 11
820.2747854724679
 21
1050.336406115931
 31
0.0
  0
LINE
  5
6D3
102
{ACAD_REACTORS
330
705
102
}
330
1F
100
AcDbEntity
  8
con
100
AcDbLine
 10
810.2747854724679
 20
1040.336406115931
 30
0.0
 11
810.2747854724681
 21
785.3364061159309
 31
0.0
  0
LINE
  5
6D4
330
1F
100
AcDbEntity
  8
con
100
AcDbLine
 10
820.274785472468
 20
775.3364061159309
 30
0.0
 11
1210.274785472468
 21
775.3364061159308
 31
0.0
  0
LINE
  5
6D5
330
1F
100
AcDbEntity
  8
con
100
AcDbLine
 10
1220.274785472468
 20
785.3364061159307
 30
0.0
 11
1220.274785472468
 21
912.8364061159308
 31
0.0
  0
SPLINE
  5
6DC
330
1F
100
AcDbEntity
  8
图层1
100
AcDbSpline
210
0.0
220
0.0
230
1.0
 70
     8
 71
     3
 72
     9
 73
     5
 74
     0
 42
0.0000000001
 43
0.0000000001
 40
0.0
 40
0.0
 40
0.0
 40
0.0
 40
126.9867923727518
 40
233.6996593918776
 40
233.6996593918776
 40
233.6996593918776
 40
233.6996593918776
 10
1220.274785472468
 20
579.5958762183287
 30
0.0
 10
1197.723626118018
 20
538.1886039757898
 30
0.0
 10
1164.733287067306
 20
461.9848883088643
 30
0.0
 10
1087.946138836885
 20
440.5429936647448
 30
0.0
 10
1050.968365140738
 20
433.1464529972938
 30
0.0
  0
LINE
  5
6DD
330
1F
100
AcDbEntity
  8
con
100
AcDbLine
 10
1245.274785472468
 20
559.5958762183287
 30
0.0
 11
1062.632948685717
 21
559.5958762183287
 31
0.0
  0
SPLINE
  5
6DE
330
1F
100
AcDbEntity
  8
con
100
AcDbSpline
210
0.0
220
0.0
230
1.0
 70
     8
 71
     3
 72
     9
 73
     5
 74
     0
 42
0.0000000001
 43
0.0000000001
 40
4.716370385381606
 40
4.716370385381606
 40
4.716370385381606
 40
4.716370385381606
 40
126.986792372752
 40
246.6905856536569
 40
246.6905856536569
 40
246.6905856536569
 40
246.6905856536569
 10
1224.721714197977
 20
559.5958762183609
 30
0.0
 10
1207.097307615572
 20
519.9414965617894
 30
0.0
 10
1171.41122237988
 20
442.5256766165543
 30
0.0
 10
1092.712371912282
 20
421.6197586501364
 30
0.0
 10
1050.713513462008
 20
415.3068354861891
 30
0.0
  0
ARC
  5
6DF
330
1F
100
AcDbEntity
  8
con
100
AcDbCircle
 10
1240.274785472468
 20
574.5958762183287
 30
0.0
 40
5.0
100
AcDbArc
 50
0.000000000000007
 51
90.0
  0
LINE
  5
6E1
330
1F
100
AcDbEntity
  8
con
100
AcDbLine
 10
1245.274785472468
 20
559.5958762183287
 30
0.0
 11
1245.274785472467
 21
574.5958762183287
 31
0.0
  0
LINE
  5
6E2
330
1F
100
AcDbEntity
  8
con
100
AcDbLine
 10
790.2747854724682
 20
579.5958762183287
 30
0.0
 11
1240.274785472468
 21
579.5958762183287
 31
0.0
  0
ARC
  5
6E4
330
1F
100
AcDbEntity
  8
con
100
AcDbCircle
 10
1210.274785472468
 20
1040.336406115931
 30
0.0
 40
10.0
100
AcDbArc
 50
0.0
 51
90.0
  0
ARC
  5
6E5
330
1F
100
AcDbEntity
  8
con
100
AcDbCircle
 10
1235.274785472468
 20
1065.33640611593
 30
0.0
 40
10.0
100
AcDbArc
 50
0.0
 51
90.0
  0
ARC
  5
6E6
330
1F
100
AcDbEntity
  8
con
100
AcDbCircle
 10
820.2747854724679
 20
1040.336406115931
 30
0.0
 40
10.0
100
AcDbArc
 50
90.0
 51
180.0
  0
ARC
  5
6E7
102
{ACAD_REACTORS
330
743
102
}
330
1F
100
AcDbEntity
  8
con
100
AcDbCircle
 10
795.2747854724679
 20
1065.336406115931
 30
0.0
 40
10.0
100
AcDbArc
 50
89.99999999999998
 51
180.0
  0
ARC
  5
6E8
102
{ACAD_REACTORS
330
705
102
}
330
1F
100
AcDbEntity
  8
con
100
AcDbCircle
 10
1210.274785472468
 20
785.3364061159307
 30
0.0
 40
10.0
100
AcDbArc
 50
270.0
 51
0.0
  0
ARC
  5
6E9
102
{ACAD_REACTORS
330
71F
102
}
330
1F
100
AcDbEntity
  8
con
100
AcDbCircle
 10
1235.274785472468
 20
760.336406115931
 30
0.0
 40
10.0
100
AcDbArc
 50
270.0
 51
0.0
  0
ARC
  5
6EA
330
1F
100
AcDbEntity
  8
con
100
AcDbCircle
 10
820.274785472468
 20
785.3364061159309
 30
0.0
 40
10.0
100
AcDbArc
 50
180.0
 51
270.0
  0
ARC
  5
6EB
102
{ACAD_REACTORS
330
71F
102
}
330
1F
100
AcDbEntity
  8
con
100
AcDbCircle
 10
795.2747854724681
 20
760.336406115931
 30
0.0
 40
10.0
100
AcDbArc
 50
180.0
 51
270.0
  0
DIMENSION
  5
6EC
102
{ACAD_XDICTIONARY
360
6FA
102
}
102
{ACAD_REACTORS
330
705
102
}
330
1F
100
AcDbEntity
  8
Defpoints
100
AcDbDimension
  2
*D2
 10
1220.274785472468
 20
699.9266033562112
 30
0.0
 11
1015.274785472468
 21
699.9266033562112
 31
0.0
 70
    32
  1
16"
 71
     5
 42
410.0000000000001
 73
     0
 74
     0
 75
     0
  3
ISO-25
100
AcDbAlignedDimension
 13
810.2747854724679
 23
1040.336406115931
 33
0.0
 14
1220.274785472468
 24
785.3364061159307
 34
0.0
100
AcDbRotatedDimension
  0
DIMENSION
  5
706
102
{ACAD_XDICTIONARY
360
714
102
}
102
{ACAD_REACTORS
330
71F
102
}
330
1F
100
AcDbEntity
  8
Defpoints
100
AcDbDimension
  2
*D3
 10
1245.274785472468
 20
671.868149897416
 30
0.0
 11
1015.274785472468
 21
671.868149897416
 31
0.0
 70
    32
  1
18"
 71
     5
 42
460.0000000000001
 73
     0
 74
     0
 75
     0
  3
ISO-25
100
AcDbAlignedDimension
 13
785.2747854724681
 23
760.336406115931
 33
0.0
 14
1245.274785472468
 24
760.336406115931
 34
0.0
100
AcDbRotatedDimension
  0
DIMENSION
  5
72A
102
{ACAD_XDICTIONARY
360
738
102
}
102
{ACAD_REACTORS
330
743
102
}
330
1F
100
AcDbEntity
  8
Defpoints
100
AcDbDimension
  2
*D4
 10
715.7204026099261
 20
750.3364061159311
 30
0.0
 11
715.720402609926
 21
912.8364061159311
 31
0.0
 70
    32
  1
12-7/8"
 71
     5
 42
324.9999999999999
 73
     0
 74
     0
 75
     0
  3
ISO-25
100
AcDbAlignedDimension
 13
795.2747854724679
 23
1075.336406115931
 33
0.0
 14
795.2747854724681
 24
750.3364061159309
 34
0.0
 50
90.0
100
AcDbRotatedDimension
  0
DIMENSION
  5
744
330
1F
100
AcDbEntity
  8
Defpoints
100
AcDbDimension
  2
*D5
 10
759.5476220817008
 20
775.336406115931
 30
0.0
 11
759.5476220817006
 21
912.8364061159311
 31
0.0
 70
    32
  1
10-7/8"
 71
     5
 42
275.0
 73
     0
 74
     0
 75
     0
  3
ISO-25
100
AcDbAlignedDimension
 13
1015.274785472468
 23
1050.336406115931
 33
0.0
 14
1015.274785472468
 24
775.3364061159309
 34
0.0
 50
90.0
100
AcDbRotatedDimension
  0
DIMENSION
  5
75E
330
1F
100
AcDbEntity
  8
Defpoints
100
AcDbDimension
  2
*D6
 10
737.0995347863445
 20
384.5958762183289
 30
0.0
 11
737.0995347863444
 21
482.0958762183289
 31
0.0
 70
    32
  1
7-1/2"
 71
     5
 42
194.9999999999999
 73
     0
 74
     0
 75
     0
  3
ISO-25
100
AcDbAlignedDimension
 13
1015.274785472468
 23
579.5958762183287
 33
0.0
 14
1015.274785472468
 24
384.5958762183288
 34
0.0
 50
90.0
100
AcDbRotatedDimension
  0
LINE
  5
778
330
1F
100
AcDbEntity
  8
dash
100
AcDbLine
 10
1015.274785472468
 20
912.8364061159308
 30
0.0
 11
1212.774785472468
 21
912.8364061159308
 31
0.0
  0
LINE
  5
779
330
1F
100
AcDbEntity
  8
dash
100
AcDbLine
 10
1212.774785472468
 20
912.8364061159308
 30
0.0
 11
1212.774785472468
 21
1035.336406115931
 31
0.0
  0
LINE
  5
77A
330
1F
100
AcDbEntity
  8
dash
100
AcDbLine
 10
1202.774785472468
 20
1045.336406115931
 30
0.0
 11
827.774785472468
 21
1045.336406115931
 31
0.0
  0
LINE
  5
77B
330
1F
100
AcDbEntity
  8
dash
100
AcDbLine
 10
817.774785472468
 20
1035.336406115931
 30
0.0
 11
817.774785472468
 21
790.3364061159309
 31
0.0
  0
LINE
  5
77C
330
1F
100
AcDbEntity
  8
dash
100
AcDbLine
 10
827.774785472468
 20
780.3364061159308
 30
0.0
 11
1202.774785472468
 21
780.3364061159308
 31
0.0
  0
LINE
  5
77D
102
{ACAD_REACTORS
330
79B
102
}
330
1F
100
AcDbEntity
  8
dash
100
AcDbLine
 10
1212.774785472468
 20
790.3364061159309
 30
0.0
 11
1212.774785472468
 21
912.8364061159308
 31
0.0
  0
ARC
  5
77E
330
1F
100
AcDbEntity
  8
dash
100
AcDbCircle
 10
1202.774785472468
 20
1035.336406115931
 30
0.0
 40
10.0
100
AcDbArc
 50
0.0
 51
90.0
  0
ARC
  5
77F
330
1F
100
AcDbEntity
  8
dash
100
AcDbCircle
 10
1202.774785472468
 20
790.3364061159309
 30
0.0
 40
10.0
100
AcDbArc
 50
270.0
 51
0.0
  0
ARC
  5
780
330
1F
100
AcDbEntity
  8
dash
100
AcDbCircle
 10
827.774785472468
 20
790.3364061159309
 30
0.0
 40
10.0
100
AcDbArc
 50
180.0
 51
270.0
  0
ARC
  5
781
330
1F
100
AcDbEntity
  8
dash
100
AcDbCircle
 10
827.774785472468
 20
1035.336406115931
 30
0.0
 40
10.0
100
AcDbArc
 50
90.0
 51
180.0
  0
DIMENSION
  5
782
102
{ACAD_XDICTIONARY
360
790
102
}
102
{ACAD_REACTORS
330
79B
102
}
330
1F
100
AcDbEntity
  8
Defpoints
100
AcDbDimension
  2
*D7
 10
1212.774785472468
 20
912.8364061159308
 30
0.0
 11
926.5414226010035
 21
912.8364061159308
 31
0.0
 70
   160
  1
15-1/2"
 71
     5
 42
395.0
 73
     0
 74
     0
 75
     0
  3
ISO-25
100
AcDbAlignedDimension
 13
817.774785472468
 23
912.8364061159308
 33
0.0
 14
1212.774785472468
 24
912.8364061159308
 34
0.0
100
AcDbRotatedDimension
  0
DIMENSION
  5
79C
330
1F
100
AcDbEntity
  8
Defpoints
100
AcDbDimension
  2
*D8
 10
1015.274785472469
 20
780.3364061159308
 30
0.0
 11
1015.274785472468
 21
874.5435415039274
 31
0.0
 70
   160
  1
10-7/16"
 71
     5
 42
265.0
 73
     0
 74
     0
 75
     0
  3
ISO-25
100
AcDbAlignedDimension
 13
1015.274785472468
 23
1045.336406115931
 33
0.0
 14
1015.274785472468
 24
780.3364061159308
 34
0.0
 50
90.0
100
AcDbRotatedDimension
  0
LINE
  5
892
330
1F
100
AcDbEntity
  8
图层1
100
AcDbLine
 10
990.1329486857179
 20
384.5958762183288
 30
0.0
 11
990.1329486857179
 21
433.1464529972938
 31
0.0
  0
LINE
  5
893
330
1F
100
AcDbEntity
  8
图层1
100
AcDbLine
 10
1040.416622259218
 20
384.5958762183288
 30
0.0
 11
1040.416622259218
 21
433.1464529972939
 31
0.0
  0
ENDSEC
  0
SECTION
  2
OBJECTS
  0
DICTIONARY
  5
C
330
0
100
AcDbDictionary
281
     1
  3
ACAD_COLOR
350
6B
  3
ACAD_GROUP
350
D
  3
ACAD_LAYOUT
350
1A
  3
ACAD_MATERIAL
350
6A
  3
ACAD_MLINESTYLE
350
17
  3
ACAD_PLOTSETTINGS
350
19
  3
ACAD_PLOTSTYLENAME
350
E
  3
ACAD_TABLESTYLE
350
7E
  3
ACAD_VISUALSTYLE
350
F0
  3
AcDbVariableDictionary
350
5E
  0
DICTIONARY
  5
12C
330
2
100
AcDbDictionary
280
     1
281
     1
  3
ACAD_LAYERFILTERS
360
60A
  3
ACLYDICTIONARY
360
609
  0
DICTIONARY
  5
14B
330
1F
100
AcDbDictionary
280
     1
281
     1
  3
ACAD_SORTENTS
360
14C
  0
DICTIONARY
  5
3AC
330
3A0
100
AcDbDictionary
280
     1
281
     1
  3
ACAD_DIMASSOC
360
3B5
  0
DICTIONARY
  5
6FA
330
6EC
100
AcDbDictionary
280
     1
281
     1
  3
ACAD_DIMASSOC
360
705
  0
DICTIONARY
  5
714
330
706
100
AcDbDictionary
280
     1
281
     1
  3
ACAD_DIMASSOC
360
71F
  0
DICTIONARY
  5
738
330
72A
100
AcDbDictionary
280
     1
281
     1
  3
ACAD_DIMASSOC
360
743
  0
DICTIONARY
  5
790
330
782
100
AcDbDictionary
280
     1
281
     1
  3
ACAD_DIMASSOC
360
79B
  0
DICTIONARY
  5
6B
102
{ACAD_REACTORS
330
C
102
}
330
C
100
AcDbDictionary
281
     1
  0
DICTIONARY
  5
D
102
{ACAD_REACTORS
330
C
102
}
330
C
100
AcDbDictionary
281
     1
  0
DICTIONARY
  5
1A
102
{ACAD_REACTORS
330
C
102
}
330
C
100
AcDbDictionary
281
     1
  3
Model
350
22
  3
布局1
350
D3
  3
布局2
350
D7
  0
DICTIONARY
  5
6A
102
{ACAD_REACTORS
330
C
102
}
330
C
100
AcDbDictionary
281
     1
  3
ByBlock
350
EE
  3
ByLayer
350
ED
  3
Global
350
EF
  0
DICTIONARY
  5
17
102
{ACAD_REACTORS
330
C
102
}
330
C
100
AcDbDictionary
281
     1
  3
Standard
350
18
  0
DICTIONARY
  5
19
102
{ACAD_REACTORS
330
C
102
}
330
C
100
AcDbDictionary
281
     1
  0
ACDBDICTIONARYWDFLT
  5
E
102
{ACAD_REACTORS
330
C
102
}
330
C
100
AcDbDictionary
281
     1
  3
Normal
350
F
100
AcDbDictionaryWithDefault
340
F
  0
DICTIONARY
  5
7E
102
{ACAD_REACTORS
330
C
102
}
330
C
100
AcDbDictionary
281
     1
  3
Standard
350
7F
  0
DICTIONARY
  5
F0
102
{ACAD_REACTORS
330
C
102
}
330
C
100
AcDbDictionary
281
     1
  3
2dWireframe
350
F6
  3
3D Hidden
350
F8
  3
3dWireframe
350
F7
  3
Basic
350
F5
  3
Brighten
350
FC
  3
ColorChange
350
100
  3
Conceptual
350
F9
  3
Dim
350
FB
  3
Facepattern
350
FF
  3
Flat
350
F1
  3
FlatWithEdges
350
F2
  3
Gouraud
350
F3
  3
GouraudWithEdges
350
F4
  3
Linepattern
350
FE
  3
Realistic
350
FA
  3
Thicken
350
FD
  0
DICTIONARY
  5
5E
102
{ACAD_REACTORS
330
C
102
}
330
C
100
AcDbDictionary
281
     1
  3
CTABLESTYLE
350
84
  3
DIMASSOC
350
5F
  3
HIDETEXT
350
63
  0
DICTIONARY
  5
60A
102
{ACAD_REACTORS
330
12C
102
}
330
12C
100
AcDbDictionary
281
     1
  0
DICTIONARY
  5
609
102
{ACAD_REACTORS
330
12C
102
}
330
12C
100
AcDbDictionary
281
     1
1001
ACAD
1000
<All
  0
SORTENTSTABLE
  5
14C
102
{ACAD_REACTORS
330
14B
102
}
330
14B
100
AcDbSortentsTable
330
1F
331
779
  5
779
331
6D2
  5
6DD
331
3A0
  5
3CC
331
780
  5
77E
331
6E7
  5
6CE
331
6C9
  5
6CB
331
706
  5
706
331
495
  5
496
331
77A
  5
77B
331
6D3
  5
6DF
331
781
  5
77C
331
199
  5
19B
331
6E8
  5
6E5
331
6E1
  5
6EA
331
17B
  5
17B
331
744
  5
744
331
24A
  5
24B
331
77B
  5
77D
331
6E2
  5
6EB
331
6CB
  5
6CD
331
6E9
  5
6D5
331
165
  5
163
331
605
  5
606
331
6D4
  5
6E2
331
77C
  5
77F
331
6D5
  5
6E4
331
6EA
  5
6E1
331
16D
  5
176
331
6CC
  5
6D1
331
606
  5
6BC
331
6DC
  5
6E6
331
77D
  5
780
331
149
  5
153
331
499
  5
499
331
6E4
  5
6DC
331
16E
  5
178
331
6CD
  5
6D3
331
6EB
  5
6D2
331
6DD
  5
6E7
331
177
  5
171
331
77E
  5
77A
331
72A
  5
72A
331
6DE
  5
6E8
331
196
  5
199
331
75E
  5
75E
331
6CE
  5
6D4
331
19D
  5
231
331
6EC
  5
6EC
331
6E5
  5
6CC
331
178
  5
180
331
778
  5
778
331
6D1
  5
6D6
331
6DF
  5
6E9
331
6E6
  5
6DE
331
179
  5
177
331
77F
  5
781
  0
DIMASSOC
  5
3B5
102
{ACAD_REACTORS
330
3AC
102
}
330
3AC
100
AcDbDimAssoc
330
3A0
 90
        2
 70
     0
 71
     0
  1
AcDbOsnapPointRef
 72
     3
331
149
 73
     2
 91
        0
 40
0.0
 10
0.0
 20
0.0
 30
0.0
 75
     0
  0
DIMASSOC
  5
705
102
{ACAD_REACTORS
330
6FA
102
}
330
6FA
100
AcDbDimAssoc
330
6EC
 90
        3
 70
     0
 71
     0
  1
AcDbOsnapPointRef
 72
    13
331
6D3
 73
     2
 91
        0
 40
0.0
 10
0.0
 20
0.0
 30
2.000000000000000E+50
 75
     0
  1
AcDbOsnapPointRef
 72
     1
331
6E8
 73
     2
 91
        0
 40
6.283185307179586
 10
0.0
 20
0.0
 30
2.000000000000000E+50
 75
     0
  0
DIMASSOC
  5
71F
102
{ACAD_REACTORS
330
714
102
}
330
714
100
AcDbDimAssoc
330
706
 90
        3
 70
     0
 71
     0
  1
AcDbOsnapPointRef
 72
    13
331
6EB
 73
     2
 91
        0
 40
3.141592653589793
 10
0.0
 20
0.0
 30
2.000000000000000E+50
 75
     0
  1
AcDbOsnapPointRef
 72
     1
331
6E9
 73
     2
 91
        0
 40
6.283185307179586
 10
0.0
 20
0.0
 30
2.000000000000000E+50
 75
     0
  0
DIMASSOC
  5
743
102
{ACAD_REACTORS
330
738
102
}
330
738
100
AcDbDimAssoc
330
72A
 90
        3
 70
     0
 71
     0
  1
AcDbOsnapPointRef
 72
    13
331
6E7
 73
     2
 91
        0
 40
1.570796326794896
 10
0.0
 20
0.0
 30
2.000000000000000E+50
 75
     0
  1
AcDbOsnapPointRef
 72
    13
331
6CD
 73
     2
 91
        0
 40
0.0
 10
0.0
 20
0.0
 30
2.000000000000000E+50
 75
     0
  0
DIMASSOC
  5
79B
102
{ACAD_REACTORS
330
790
102
}
330
790
100
AcDbDimAssoc
330
782
 90
        2
 70
     0
 71
     0
  1
AcDbOsnapPointRef
 72
     1
331
77D
 73
     2
 91
        0
 40
1.0
 10
0.0
 20
0.0
 30
2.000000000000000E+50
 75
     0
  0
LAYOUT
  5
22
102
{ACAD_REACTORS
330
1A
102
}
330
1A
100
AcDbPlotSettings
  1

  2
none_device
  4
ISO_A4_(210.00_x_297.00_MM)
  6

 40
7.5
 41
20.0
 42
7.5
 43
20.0
 44
210.0
 45
297.0
 46
11.54999923706054
 47
-13.65000009536743
 48
0.0
 49
0.0
140
0.0
141
0.0
142
1.0
143
8.704084754739808
 70
 11952
 72
     1
 73
     0
 74
     0
  7

 75
     0
147
0.1148885871608098
 76
     0
 77
     2
 78
   300
148
0.0
149
0.0
100
AcDbLayout
  1
Model
 70
     1
 71
     0
 10
0.0
 20
0.0
 11
12.0
 21
9.0
 12
0.0
 22
0.0
 32
0.0
 14
0.0
 24
0.0
 34
0.0
 15
0.0
 25
0.0
 35
0.0
146
0.0
 13
0.0
 23
0.0
 33
0.0
 16
1.0
 26
0.0
 36
0.0
 17
0.0
 27
1.0
 37
0.0
 76
     0
330
1F
331
EB
1001
ACAD_PSEXT
1000
None
1000
None
1000
Not applicable
1000
The layout will not be plotted unless a new plotter configuration name is selected.
1070
     0
  0
LAYOUT
  5
D3
102
{ACAD_REACTORS
330
1A
102
}
330
1A
100
AcDbPlotSettings
  1

  2
C:\Documents and Settings\basas\Application Data\Autodesk\AutoCAD 2005\R16.1\enu\plotters\Default Windows System Printer.pc3
  4

  6

 40
0.0
 41
0.0
 42
0.0
 43
0.0
 44
0.0
 45
0.0
 46
0.0
 47
0.0
 48
0.0
 49
0.0
140
0.0
141
0.0
142
1.0
143
1.0
 70
   688
 72
     0
 73
     0
 74
     5
  7

 75
    16
147
1.0
 76
     0
 77
     2
 78
   300
148
0.0
149
0.0
100
AcDbLayout
  1
布局1
 70
     1
 71
     1
 10
0.0
 20
0.0
 11
12.0
 21
9.0
 12
0.0
 22
0.0
 32
0.0
 14
0.0
 24
0.0
 34
0.0
 15
0.0
 25
0.0
 35
0.0
146
0.0
 13
0.0
 23
0.0
 33
0.0
 16
1.0
 26
0.0
 36
0.0
 17
0.0
 27
1.0
 37
0.0
 76
     0
330
D2
  0
LAYOUT
  5
D7
102
{ACAD_REACTORS
330
1A
102
}
330
1A
100
AcDbPlotSettings
  1

  2
C:\Documents and Settings\basas\Application Data\Autodesk\AutoCAD 2005\R16.1\enu\plotters\Default Windows System Printer.pc3
  4

  6

 40
0.0
 41
0.0
 42
0.0
 43
0.0
 44
0.0
 45
0.0
 46
0.0
 47
0.0
 48
0.0
 49
0.0
140
0.0
141
0.0
142
1.0
143
1.0
 70
   688
 72
     0
 73
     0
 74
     5
  7

 75
    16
147
1.0
 76
     0
 77
     2
 78
   300
148
0.0
149
0.0
100
AcDbLayout
  1
布局2
 70
     1
 71
     2
 10
0.0
 20
0.0
 11
12.0
 21
9.0
 12
0.0
 22
0.0
 32
0.0
 14
0.0
 24
0.0
 34
0.0
 15
0.0
 25
0.0
 35
0.0
146
0.0
 13
0.0
 23
0.0
 33
0.0
 16
1.0
 26
0.0
 36
0.0
 17
0.0
 27
1.0
 37
0.0
 76
     0
330
D6
  0
MATERIAL
  5
EE
102
{ACAD_REACTORS
330
6A
102
}
330
6A
100
AcDbMaterial
  1
ByBlock
  0
MATERIAL
  5
ED
102
{ACAD_REACTORS
330
6A
102
}
330
6A
100
AcDbMaterial
  1
ByLayer
  0
MATERIAL
  5
EF
102
{ACAD_REACTORS
330
6A
102
}
330
6A
100
AcDbMaterial
  1
Global
  0
MLINESTYLE
  5
18
102
{ACAD_REACTORS
330
17
102
}
330
17
100
AcDbMlineStyle
  2
STANDARD
 70
     0
  3

 62
   256
 51
90.0
 52
90.0
 71
     2
 49
0.5
 62
   256
  6
BYLAYER
 49
-0.5
 62
   256
  6
BYLAYER
  0
ACDBPLACEHOLDER
  5
F
102
{ACAD_REACTORS
330
E
102
}
330
E
  0
TABLESTYLE
  5
7F
102
{ACAD_REACTORS
330
7E
102
}
330
7E
100
AcDbTableStyle
  3
Standard
 70
     0
 71
     0
 40
1.5
 41
1.5
280
     0
281
     0
  7
Standard
140
4.5
170
     2
 62
     0
 63
     7
283
     0
 90
      512
 91
        0
  1

274
    -2
284
     1
 64
     0
275
    -2
285
     1
 65
     0
276
    -2
286
     1
 66
     0
277
    -2
287
     1
 67
     0
278
    -2
288
     1
 68
     0
279
    -2
289
     1
 69
     0
  7
Standard
140
6.0
170
     5
 62
     0
 63
     7
283
     0
 90
      512
 91
        0
  1

274
    -2
284
     1
 64
     0
275
    -2
285
     1
 65
     0
276
    -2
286
     1
 66
     0
277
    -2
287
     1
 67
     0
278
    -2
288
     1
 68
     0
279
    -2
289
     1
 69
     0
  7
Standard
140
4.5
170
     5
 62
     0
 63
     7
283
     0
 90
      512
 91
        0
  1

274
    -2
284
     1
 64
     0
275
    -2
285
     1
 65
     0
276
    -2
286
     1
 66
     0
277
    -2
287
     1
 67
     0
278
    -2
288
     1
 68
     0
279
    -2
289
     1
 69
     0
  0
VISUALSTYLE
  5
F6
102
{ACAD_REACTORS
330
F0
102
}
330
F0
100
AcDbVisualStyle
  2
2dWireframe
 70
     4
 71
     0
 72
     2
 73
     1
 90
        0
 40
-0.6
 41
-30.0
 62
     5
 63
     7
421
 16777215
 74
     1
 91
        4
 64
     7
 65
   257
 75
     1
175
     1
 42
1.0
 92
        0
 66
   257
 43
1.0
 76
     1
 77
     6
 78
     2
 67
     7
 79
     5
170
     0
171
     0
290
     0
174
     0
 93
        1
 44
0.0
173
     0
291
     0
 45
0.0
  0
VISUALSTYLE
  5
F8
102
{ACAD_REACTORS
330
F0
102
}
330
F0
100
AcDbVisualStyle
  2
3D Hidden
 70
     6
 71
     1
 72
     2
 73
     2
 90
        0
 40
-0.6
 41
-30.0
 62
     5
 63
     7
421
 16777215
 74
     2
 91
        2
 64
     7
 65
   257
 75
     2
175
     1
 42
40.0
 92
        0
 66
   257
 43
1.0
 76
     1
 77
     6
 78
     2
 67
     7
 79
     3
170
     0
171
     0
290
     0
174
     0
 93
        1
 44
0.0
173
     0
291
     0
 45
0.0
  0
VISUALSTYLE
  5
F7
102
{ACAD_REACTORS
330
F0
102
}
330
F0
100
AcDbVisualStyle
  2
3dWireframe
 70
     5
 71
     0
 72
     2
 73
     1
 90
        0
 40
-0.6
 41
-30.0
 62
     5
 63
     7
421
 16777215
 74
     1
 91
        4
 64
     7
 65
   257
 75
     1
175
     1
 42
1.0
 92
        0
 66
   257
 43
1.0
 76
     1
 77
     6
 78
     2
 67
     7
 79
     5
170
     0
171
     0
290
     0
174
     0
 93
        1
 44
0.0
173
     0
291
     0
 45
0.0
  0
VISUALSTYLE
  5
F5
102
{ACAD_REACTORS
330
F0
102
}
330
F0
100
AcDbVisualStyle
  2
Basic
 70
     7
 71
     1
 72
     0
 73
     1
 90
        0
 40
-0.6
 41
-30.0
 62
     5
 63
     7
421
 16777215
 74
     0
 91
        4
 64
     7
 65
   257
 75
     1
175
     1
 42
1.0
 92
        8
 66
     7
 43
1.0
 76
     1
 77
     6
 78
     2
 67
     7
 79
     5
170
     0
171
     0
290
     0
174
     0
 93
        1
 44
0.0
173
     0
291
     1
 45
0.0
  0
VISUALSTYLE
  5
FC
102
{ACAD_REACTORS
330
F0
102
}
330
F0
100
AcDbVisualStyle
  2
Brighten
 70
    12
 71
     2
 72
     2
 73
     1
 90
        0
 40
-0.6
 41
-30.0
 62
     5
 63
     7
421
 16777215
 74
     1
 91
        4
 64
     7
 65
   257
 75
     1
175
     1
 42
1.0
 92
        8
 66
     7
 43
1.0
 76
     1
 77
     6
 78
     2
 67
     7
 79
     5
170
     0
171
     0
290
     0
174
     0
 93
        1
 44
50.0
173
     0
291
     1
 45
0.0
  0
VISUALSTYLE
  5
100
102
{ACAD_REACTORS
330
F0
102
}
330
F0
100
AcDbVisualStyle
  2
ColorChange
 70
    16
 71
     2
 72
     2
 73
     3
 90
        0
 40
-0.6
 41
-30.0
 62
     5
 63
     8
421
  8421504
 74
     1
 91
        4
 64
     7
 65
   257
 75
     1
175
     1
 42
1.0
 92
        8
 66
     8
424
  8421504
 43
1.0
 76
     1
 77
     6
 78
     2
 67
     7
 79
     5
170
     0
171
     0
290
     0
174
     0
 93
        1
 44
0.0
173
     0
291
     1
 45
0.0
  0
VISUALSTYLE
  5
F9
102
{ACAD_REACTORS
330
F0
102
}
330
F0
100
AcDbVisualStyle
  2
Conceptual
 70
     9
 71
     3
 72
     2
 73
     1
 90
        0
 40
-0.6
 41
-30.0
 62
     5
 63
     7
421
 16777215
 74
     2
 91
        2
 64
     7
 65
   257
 75
     1
175
     1
 42
40.0
 92
        8
 66
     7
 43
1.0
 76
     1
 77
     6
 78
     2
 67
     7
 79
     3
170
     0
171
     0
290
     0
174
     0
 93
        1
 44
0.0
173
     0
291
     0
 45
0.0
  0
VISUALSTYLE
  5
FB
102
{ACAD_REACTORS
330
F0
102
}
330
F0
100
AcDbVisualStyle
  2
Dim
 70
    11
 71
     2
 72
     2
 73
     1
 90
        0
 40
-0.6
 41
-30.0
 62
     5
 63
     7
421
 16777215
 74
     1
 91
        4
 64
     7
 65
   257
 75
     1
175
     1
 42
1.0
 92
        8
 66
     7
 43
1.0
 76
     1
 77
     6
 78
     2
 67
     7
 79
     5
170
     0
171
     0
290
     0
174
     0
 93
        1
 44
-50.0
173
     0
291
     1
 45
0.0
  0
VISUALSTYLE
  5
FF
102
{ACAD_REACTORS
330
F0
102
}
330
F0
100
AcDbVisualStyle
  2
Facepattern
 70
    15
 71
     2
 72
     2
 73
     1
 90
        0
 40
-0.6
 41
-30.0
 62
     5
 63
     7
421
 16777215
 74
     1
 91
        4
 64
     7
 65
   257
 75
     1
175
     1
 42
1.0
 92
        8
 66
     7
 43
1.0
 76
     1
 77
     6
 78
     2
 67
     7
 79
     5
170
     0
171
     0
290
     0
174
     0
 93
        1
 44
0.0
173
     0
291
     1
 45
0.0
  0
VISUALSTYLE
  5
F1
102
{ACAD_REACTORS
330
F0
102
}
330
F0
100
AcDbVisualStyle
  2
Flat
 70
     0
 71
     2
 72
     1
 73
     1
 90
        2
 40
-0.6
 41
30.0
 62
     5
 63
     7
421
 16777215
 74
     0
 91
        4
 64
     7
 65
   257
 75
     1
175
     1
 42
1.0
 92
        8
 66
     7
 43
1.0
 76
     1
 77
     6
 78
     2
 67
     7
 79
     5
170
     0
171
     0
290
     0
174
     0
 93
        1
 44
0.0
173
     0
291
     1
 45
0.0
  0
VISUALSTYLE
  5
F2
102
{ACAD_REACTORS
330
F0
102
}
330
F0
100
AcDbVisualStyle
  2
FlatWithEdges
 70
     1
 71
     2
 72
     1
 73
     1
 90
        2
 40
-0.6
 41
30.0
 62
     5
 63
     7
421
 16777215
 74
     1
 91
        4
 64
     7
 65
   257
 75
     1
175
     1
 42
1.0
 92
        0
 66
   257
 43
1.0
 76
     1
 77
     6
 78
     2
 67
     7
 79
     5
170
     0
171
     0
290
     0
174
     0
 93
        1
 44
0.0
173
     0
291
     1
 45
0.0
  0
VISUALSTYLE
  5
F3
102
{ACAD_REACTORS
330
F0
102
}
330
F0
100
AcDbVisualStyle
  2
Gouraud
 70
     2
 71
     2
 72
     2
 73
     1
 90
        2
 40
-0.6
 41
30.0
 62
     5
 63
     7
421
 16777215
 74
     0
 91
        4
 64
     7
 65
   257
 75
     1
175
     1
 42
1.0
 92
        0
 66
     7
 43
1.0
 76
     1
 77
     6
 78
     2
 67
     7
 79
     5
170
     0
171
     0
290
     0
174
     0
 93
        1
 44
0.0
173
     0
291
     1
 45
0.0
  0
VISUALSTYLE
  5
F4
102
{ACAD_REACTORS
330
F0
102
}
330
F0
100
AcDbVisualStyle
  2
GouraudWithEdges
 70
     3
 71
     2
 72
     2
 73
     1
 90
        2
 40
-0.6
 41
30.0
 62
     5
 63
     7
421
 16777215
 74
     1
 91
        4
 64
     7
 65
   257
 75
     1
175
     1
 42
1.0
 92
        0
 66
   257
 43
1.0
 76
     1
 77
     6
 78
     2
 67
     7
 79
     5
170
     0
171
     0
290
     0
174
     0
 93
        1
 44
0.0
173
     0
291
     1
 45
0.0
  0
VISUALSTYLE
  5
FE
102
{ACAD_REACTORS
330
F0
102
}
330
F0
100
AcDbVisualStyle
  2
Linepattern
 70
    14
 71
     2
 72
     2
 73
     1
 90
        0
 40
-0.6
 41
-30.0
 62
     5
 63
     7
421
 16777215
 74
     1
 91
        4
 64
     7
 65
   257
 75
     7
175
     7
 42
1.0
 92
        8
 66
     7
 43
1.0
 76
     1
 77
     6
 78
     2
 67
     7
 79
     5
170
     0
171
     0
290
     0
174
     0
 93
        1
 44
0.0
173
     0
291
     1
 45
0.0
  0
VISUALSTYLE
  5
FA
102
{ACAD_REACTORS
330
F0
102
}
330
F0
100
AcDbVisualStyle
  2
Realistic
 70
     8
 71
     2
 72
     2
 73
     1
 90
        0
 40
-0.6
 41
-30.0
 62
     5
 63
     7
421
 16777215
 74
     1
 91
        0
 64
     7
 65
   257
 75
     1
175
     1
 42
1.0
 92
        8
 66
     8
424
  7895160
 43
1.0
 76
     1
 77
     6
 78
     2
 67
     7
 79
     5
170
     0
171
     0
290
     0
174
     0
 93
       13
 44
0.0
173
     0
291
     0
 45
0.0
  0
VISUALSTYLE
  5
FD
102
{ACAD_REACTORS
330
F0
102
}
330
F0
100
AcDbVisualStyle
  2
Thicken
 70
    13
 71
     2
 72
     2
 73
     1
 90
        0
 40
-0.6
 41
-30.0
 62
     5
 63
     7
421
 16777215
 74
     1
 91
        4
 64
     7
 65
   257
 75
     1
175
     1
 42
1.0
 92
       12
 66
     7
 43
1.0
 76
     1
 77
     6
 78
     2
 67
     7
 79
     5
170
     0
171
     0
290
     0
174
     0
 93
        1
 44
0.0
173
     0
291
     1
 45
0.0
  0
DICTIONARYVAR
  5
84
102
{ACAD_REACTORS
330
5E
102
}
330
5E
100
DictionaryVariables
280
     0
  1
STANDARD
  0
DICTIONARYVAR
  5
5F
102
{ACAD_REACTORS
330
5E
102
}
330
5E
100
DictionaryVariables
280
     0
  1
2
  0
DICTIONARYVAR
  5
63
102
{ACAD_REACTORS
330
5E
102
}
330
5E
100
DictionaryVariables
280
     0
  1
1
  0
ENDSEC
  0
EOF
