  0
SECTION
  2
HEADER
  9
$ACADVER
  1
AC1021
  9
$ACADMAINTVER
 70
     1
  9
$DWGCODEPAGE
  3
ANSI_936
  9
$LASTSAVEDBY
  1
Administrator
  9
$INSBASE
 10
0.0
 20
0.0
 30
0.0
  9
$EXTMIN
 10
677.8347222418021
 20
394.4530336505004
 30
0.0
  9
$EXTMAX
 10
1277.774785472468
 20
1085.336406115931
 30
0.0
  9
$LIMMIN
 10
0.0
 20
0.0
  9
$LIMMAX
 10
420.0
 20
297.0
  9
$ORTHOMODE
 70
     1
  9
$REGENMODE
 70
     1
  9
$FILLMODE
 70
     1
  9
$QTEXTMODE
 70
     0
  9
$MIRRTEXT
 70
     0
  9
$LTSCALE
 40
1.0
  9
$ATTMODE
 70
     1
  9
$TEXTSIZE
 40
2.5
  9
$TRACEWID
 40
1.0
  9
$TEXTSTYLE
  7
Standard
  9
$CLAYER
  8
图层1
  9
$CELTYPE
  6
ByLayer
  9
$CECOLOR
 62
   256
  9
$CELTSCALE
 40
1.0
  9
$DISPSILH
 70
     0
  9
$DIMSCALE
 40
1.0
  9
$DIMASZ
 40
7.5
  9
$DIMEXO
 40
0.625
  9
$DIMDLI
 40
3.75
  9
$DIMRND
 40
0.0
  9
$DIMDLE
 40
0.0
  9
$DIMEXE
 40
1.25
  9
$DIMTP
 40
0.0
  9
$DIMTM
 40
0.0
  9
$DIMTXT
 40
7.5
  9
$DIMCEN
 40
2.5
  9
$DIMTSZ
 40
0.0
  9
$DIMTOL
 70
     0
  9
$DIMLIM
 70
     0
  9
$DIMTIH
 70
     0
  9
$DIMTOH
 70
     0
  9
$DIMSE1
 70
     0
  9
$DIMSE2
 70
     0
  9
$DIMTAD
 70
     0
  9
$DIMZIN
 70
     8
  9
$DIMBLK
  1

  9
$DIMASO
 70
     1
  9
$DIMSHO
 70
     1
  9
$DIMPOST
  1

  9
$DIMAPOST
  1

  9
$DIMALT
 70
     0
  9
$DIMALTD
 70
     3
  9
$DIMALTF
 40
0.03937007874016
  9
$DIMLFAC
 40
1.0
  9
$DIMTOFL
 70
     1
  9
$DIMTVP
 40
0.0
  9
$DIMTIX
 70
     0
  9
$DIMSOXD
 70
     0
  9
$DIMSAH
 70
     0
  9
$DIMBLK1
  1

  9
$DIMBLK2
  1

  9
$DIMSTYLE
  2
ISO-25
  9
$DIMCLRD
 70
     0
  9
$DIMCLRE
 70
     0
  9
$DIMCLRT
 70
     0
  9
$DIMTFAC
 40
1.0
  9
$DIMGAP
 40
0.625
  9
$DIMJUST
 70
     0
  9
$DIMSD1
 70
     0
  9
$DIMSD2
 70
     0
  9
$DIMTOLJ
 70
     0
  9
$DIMTZIN
 70
     8
  9
$DIMALTZ
 70
     0
  9
$DIMALTTZ
 70
     0
  9
$DIMUPT
 70
     0
  9
$DIMDEC
 70
     2
  9
$DIMTDEC
 70
     2
  9
$DIMALTU
 70
     2
  9
$DIMALTTD
 70
     3
  9
$DIMTXSTY
  7
Standard
  9
$DIMAUNIT
 70
     0
  9
$DIMADEC
 70
     0
  9
$DIMALTRND
 40
0.0
  9
$DIMAZIN
 70
     0
  9
$DIMDSEP
 70
    44
  9
$DIMATFIT
 70
     3
  9
$DIMFRAC
 70
     0
  9
$DIMLDRBLK
  1

  9
$DIMLUNIT
 70
     2
  9
$DIMLWD
 70
    -2
  9
$DIMLWE
 70
    -2
  9
$DIMTMOVE
 70
     0
  9
$DIMFXL
 40
1.0
  9
$DIMFXLON
 70
     0
  9
$DIMJOGANG
 40
0.7853981633974483
  9
$DIMTFILL
 70
     0
  9
$DIMTFILLCLR
 70
     0
  9
$DIMARCSYM
 70
     0
  9
$DIMLTYPE
  6

  9
$DIMLTEX1
  6

  9
$DIMLTEX2
  6

  9
$LUNITS
 70
     2
  9
$LUPREC
 70
     4
  9
$SKETCHINC
 40
1.0
  9
$FILLETRAD
 40
10.0
  9
$AUNITS
 70
     0
  9
$AUPREC
 70
     0
  9
$MENU
  1
.
  9
$ELEVATION
 40
0.0
  9
$PELEVATION
 40
0.0
  9
$THICKNESS
 40
0.0
  9
$LIMCHECK
 70
     0
  9
$CHAMFERA
 40
0.0
  9
$CHAMFERB
 40
0.0
  9
$CHAMFERC
 40
0.0
  9
$CHAMFERD
 40
0.0
  9
$SKPOLY
 70
     0
  9
$TDCREATE
 40
2458246.405100845
  9
$TDUCREATE
 40
2458246.071767512
  9
$TDUPDATE
 40
2458854.649404815
  9
$TDUUPDATE
 40
2458854.316071481
  9
$TDINDWG
 40
0.1418130324
  9
$TDUSRTIMER
 40
0.1418119907
  9
$USRTIMER
 70
     1
  9
$ANGBASE
 50
0.0
  9
$ANGDIR
 70
     0
  9
$PDMODE
 70
     0
  9
$PDSIZE
 40
0.0
  9
$PLINEWID
 40
0.0
  9
$SPLFRAME
 70
     0
  9
$SPLINETYPE
 70
     6
  9
$SPLINESEGS
 70
     8
  9
$HANDSEED
  5
8FB
  9
$SURFTAB1
 70
     6
  9
$SURFTAB2
 70
     6
  9
$SURFTYPE
 70
     6
  9
$SURFU
 70
     6
  9
$SURFV
 70
     6
  9
$UCSBASE
  2

  9
$UCSNAME
  2

  9
$UCSORG
 10
0.0
 20
0.0
 30
0.0
  9
$UCSXDIR
 10
1.0
 20
0.0
 30
0.0
  9
$UCSYDIR
 10
0.0
 20
1.0
 30
0.0
  9
$UCSORTHOREF
  2

  9
$UCSORTHOVIEW
 70
     0
  9
$UCSORGTOP
 10
0.0
 20
0.0
 30
0.0
  9
$UCSORGBOTTOM
 10
0.0
 20
0.0
 30
0.0
  9
$UCSORGLEFT
 10
0.0
 20
0.0
 30
0.0
  9
$UCSORGRIGHT
 10
0.0
 20
0.0
 30
0.0
  9
$UCSORGFRONT
 10
0.0
 20
0.0
 30
0.0
  9
$UCSORGBACK
 10
0.0
 20
0.0
 30
0.0
  9
$PUCSBASE
  2

  9
$PUCSNAME
  2

  9
$PUCSORG
 10
0.0
 20
0.0
 30
0.0
  9
$PUCSXDIR
 10
1.0
 20
0.0
 30
0.0
  9
$PUCSYDIR
 10
0.0
 20
1.0
 30
0.0
  9
$PUCSORTHOREF
  2

  9
$PUCSORTHOVIEW
 70
     0
  9
$PUCSORGTOP
 10
0.0
 20
0.0
 30
0.0
  9
$PUCSORGBOTTOM
 10
0.0
 20
0.0
 30
0.0
  9
$PUCSORGLEFT
 10
0.0
 20
0.0
 30
0.0
  9
$PUCSORGRIGHT
 10
0.0
 20
0.0
 30
0.0
  9
$PUCSORGFRONT
 10
0.0
 20
0.0
 30
0.0
  9
$PUCSORGBACK
 10
0.0
 20
0.0
 30
0.0
  9
$USERI1
 70
     0
  9
$USERI2
 70
     0
  9
$USERI3
 70
     0
  9
$USERI4
 70
     0
  9
$USERI5
 70
     0
  9
$USERR1
 40
0.0
  9
$USERR2
 40
0.0
  9
$USERR3
 40
0.0
  9
$USERR4
 40
0.0
  9
$USERR5
 40
0.0
  9
$WORLDVIEW
 70
     1
  9
$SHADEDGE
 70
     3
  9
$SHADEDIF
 70
    70
  9
$TILEMODE
 70
     1
  9
$MAXACTVP
 70
    64
  9
$PINSBASE
 10
0.0
 20
0.0
 30
0.0
  9
$PLIMCHECK
 70
     0
  9
$PEXTMIN
 10
0.0
 20
0.0
 30
0.0
  9
$PEXTMAX
 10
0.0
 20
0.0
 30
0.0
  9
$PLIMMIN
 10
0.0
 20
0.0
  9
$PLIMMAX
 10
12.0
 20
9.0
  9
$UNITMODE
 70
     0
  9
$VISRETAIN
 70
     1
  9
$PLINEGEN
 70
     0
  9
$PSLTSCALE
 70
     1
  9
$TREEDEPTH
 70
  3020
  9
$CMLSTYLE
  2
Standard
  9
$CMLJUST
 70
     0
  9
$CMLSCALE
 40
20.0
  9
$PROXYGRAPHICS
 70
     1
  9
$MEASUREMENT
 70
     1
  9
$CELWEIGHT
370
    -1
  9
$ENDCAPS
280
     0
  9
$JOINSTYLE
280
     0
  9
$LWDISPLAY
290
     1
  9
$INSUNITS
 70
     4
  9
$HYPERLINKBASE
  1

  9
$STYLESHEET
  1

  9
$XEDIT
290
     1
  9
$CEPSNTYPE
380
     0
  9
$PSTYLEMODE
290
     1
  9
$FINGERPRINTGUID
  2
{B9AE200B-F021-428B-955F-141660E60FC2}
  9
$VERSIONGUID
  2
{8F707496-A8BC-457E-9C04-7868B3560F47}
  9
$EXTNAMES
290
     1
  9
$PSVPSCALE
 40
0.0
  9
$OLESTARTUP
290
     0
  9
$SORTENTS
280
   127
  9
$INDEXCTL
280
     0
  9
$HIDETEXT
280
     1
  9
$XCLIPFRAME
290
     0
  9
$HALOGAP
280
     0
  9
$OBSCOLOR
 70
   257
  9
$OBSLTYPE
280
     0
  9
$INTERSECTIONDISPLAY
280
     0
  9
$INTERSECTIONCOLOR
 70
   257
  9
$DIMASSOC
280
     2
  9
$PROJECTNAME
  1

  9
$CAMERADISPLAY
290
     0
  9
$LENSLENGTH
 40
50.0
  9
$CAMERAHEIGHT
 40
0.0
  9
$STEPSPERSEC
 40
2.0
  9
$STEPSIZE
 40
6.0
  9
$3DDWFPREC
 40
2.0
  9
$PSOLWIDTH
 40
5.0
  9
$PSOLHEIGHT
 40
80.0
  9
$LOFTANG1
 40
1.570796326794896
  9
$LOFTANG2
 40
1.570796326794896
  9
$LOFTMAG1
 40
0.0
  9
$LOFTMAG2
 40
0.0
  9
$LOFTPARAM
 70
     7
  9
$LOFTNORMALS
280
     1
  9
$LATITUDE
 40
37.795
  9
$LONGITUDE
 40
-122.394
  9
$NORTHDIRECTION
 40
0.0
  9
$TIMEZONE
 70
 -8000
  9
$LIGHTGLYPHDISPLAY
280
     1
  9
$TILEMODELIGHTSYNCH
280
     1
  9
$CMATERIAL
347
ED
  9
$SOLIDHIST
280
     1
  9
$SHOWHIST
280
     1
  9
$DWFFRAME
280
     2
  9
$DGNFRAME
280
     0
  9
$REALWORLDSCALE
290
     1
  9
$INTERFERECOLOR
 62
     1
  9
$INTERFEREOBJVS
345
FA
  9
$INTERFEREVPVS
346
F7
  9
$CSHADOW
280
     0
  9
$SHADOWPLANELOCATION
 40
0.0
  0
ENDSEC
  0
SECTION
  2
CLASSES
  0
CLASS
  1
ACDBDICTIONARYWDFLT
  2
AcDbDictionaryWithDefault
  3
ObjectDBX Classes
 90
        0
 91
        1
280
     0
281
     0
  0
CLASS
  1
DICTIONARYVAR
  2
AcDbDictionaryVar
  3
ObjectDBX Classes
 90
        0
 91
        3
280
     0
281
     0
  0
CLASS
  1
TABLESTYLE
  2
AcDbTableStyle
  3
ObjectDBX Classes
 90
     4095
 91
        1
280
     0
281
     0
  0
CLASS
  1
MATERIAL
  2
AcDbMaterial
  3
ObjectDBX Classes
 90
     1024
 91
        3
280
     0
281
     0
  0
CLASS
  1
VISUALSTYLE
  2
AcDbVisualStyle
  3
ObjectDBX Classes
 90
     4095
 91
       16
280
     0
281
     0
  0
CLASS
  1
SORTENTSTABLE
  2
AcDbSortentsTable
  3
ObjectDBX Classes
 90
        0
 91
        1
280
     0
281
     0
  0
CLASS
  1
DIMASSOC
  2
AcDbDimAssoc
  3
"AcDbDimAssoc|Product Desc:     AcDim ARX App For Dimension|Company:          Autodesk, Inc.|WEB Address:      www.autodesk.com"
 90
        0
 91
        5
280
     0
281
     0
  0
ENDSEC
  0
SECTION
  2
TABLES
  0
TABLE
  2
VPORT
  5
8
330
0
100
AcDbSymbolTable
 70
     1
  0
VPORT
  5
EB
330
8
100
AcDbSymbolTableRecord
100
AcDbViewportTableRecord
  2
*Active
 70
     0
 10
0.0
 20
0.0
 11
1.0
 21
1.0
 12
1022.662351197074
 22
844.5513548695709
 13
0.0
 23
0.0
 14
10.0
 24
10.0
 15
10.0
 25
10.0
 16
0.0
 26
0.0
 36
1.0
 17
0.0
 27
0.0
 37
0.0
 40
688.0625439693719
 41
2.223150357995226
 42
50.0
 43
0.0
 44
0.0
 50
0.0
 51
0.0
 71
     0
 72
  1000
 73
     1
 74
     3
 75
     0
 76
     0
 77
     0
 78
     0
281
     0
 65
     1
110
0.0
120
0.0
130
0.0
111
1.0
121
0.0
131
0.0
112
0.0
122
1.0
132
0.0
 79
     0
146
0.0
348
F6
 60
     2
 61
     5
292
     1
282
     1
141
0.0
142
0.0
 63
   250
421
  3355443
  0
ENDTAB
  0
TABLE
  2
LTYPE
  5
5
330
0
100
AcDbSymbolTable
 70
     3
  0
LTYPE
  5
14
330
5
100
AcDbSymbolTableRecord
100
AcDbLinetypeTableRecord
  2
ByBlock
 70
     0
  3

 72
    65
 73
     0
 40
0.0
  0
LTYPE
  5
15
330
5
100
AcDbSymbolTableRecord
100
AcDbLinetypeTableRecord
  2
ByLayer
 70
     0
  3

 72
    65
 73
     0
 40
0.0
  0
LTYPE
  5
16
330
5
100
AcDbSymbolTableRecord
100
AcDbLinetypeTableRecord
  2
Continuous
 70
     0
  3
Solid line
 72
    65
 73
     0
 40
0.0
  0
LTYPE
  5
12A
330
5
100
AcDbSymbolTableRecord
100
AcDbLinetypeTableRecord
  2
ACAD_ISO02W100
 70
     0
  3
ISO dash __ __ __ __ __ __ __ __ __ __ __ __ __
 72
    65
 73
     2
 40
15.0
 49
12.0
 74
     0
 49
-3.0
 74
     0
  0
LTYPE
  5
12B
330
5
100
AcDbSymbolTableRecord
100
AcDbLinetypeTableRecord
  2
ACAD_ISO04W100
 70
     0
  3
ISO long-dash dot ____ . ____ . ____ . ____ . _
 72
    65
 73
     4
 40
30.0
 49
24.0
 74
     0
 49
-3.0
 74
     0
 49
0.0
 74
     0
 49
-3.0
 74
     0
  0
ENDTAB
  0
TABLE
  2
LAYER
  5
2
102
{ACAD_XDICTIONARY
360
12C
102
}
330
0
100
AcDbSymbolTable
 70
     7
  0
LAYER
  5
10
330
2
100
AcDbSymbolTableRecord
100
AcDbLayerTableRecord
  2
0
 70
     0
 62
     7
  6
Continuous
370
    -3
390
F
347
EF
  0
LAYER
  5
123
330
2
100
AcDbSymbolTableRecord
100
AcDbLayerTableRecord
  2
dim
 70
     0
 62
     7
  6
Continuous
370
    -3
390
F
347
EF
1001
AcAecLayerStandard
1000

1000

  0
LAYER
  5
125
330
2
100
AcDbSymbolTableRecord
100
AcDbLayerTableRecord
  2
dash
 70
     0
 62
     6
  6
ACAD_ISO02W100
370
    -3
390
F
347
EF
1001
AcAecLayerStandard
1000

1000

  0
LAYER
  5
126
330
2
100
AcDbSymbolTableRecord
100
AcDbLayerTableRecord
  2
center
 70
     0
 62
     1
  6
ACAD_ISO04W100
370
    -3
390
F
347
EF
1001
AcAecLayerStandard
1000

1000

  0
LAYER
  5
127
330
2
100
AcDbSymbolTableRecord
100
AcDbLayerTableRecord
  2
con
 70
     0
 62
     7
  6
Continuous
370
    30
390
F
347
EF
1001
AcAecLayerStandard
1000

1000

  0
LAYER
  5
19F
330
2
100
AcDbSymbolTableRecord
100
AcDbLayerTableRecord
  2
Defpoints
 70
     0
 62
     7
  6
Continuous
290
     0
370
    -3
390
F
347
EF
  0
LAYER
  5
608
330
2
100
AcDbSymbolTableRecord
100
AcDbLayerTableRecord
  2
图层1
 70
     0
 62
     7
  6
ACAD_ISO02W100
370
    -3
390
F
347
EF
1001
AcAecLayerStandard
1000

1000

  0
ENDTAB
  0
TABLE
  2
STYLE
  5
3
330
0
100
AcDbSymbolTable
 70
     2
  0
STYLE
  5
11
330
3
100
AcDbSymbolTableRecord
100
AcDbTextStyleTableRecord
  2
Standard
 70
     0
 40
0.0
 41
1.0
 50
0.0
 71
     0
 42
2.5
  3
txt
  4
gbcbig.shx
  0
STYLE
  5
129
330
3
100
AcDbSymbolTableRecord
100
AcDbTextStyleTableRecord
  2

 70
     1
 40
0.0
 41
1.0
 50
0.0
 71
     0
 42
2.5
  3
ltypeshp.shx
  4

  0
ENDTAB
  0
TABLE
  2
VIEW
  5
6
330
0
100
AcDbSymbolTable
 70
     0
  0
ENDTAB
  0
TABLE
  2
UCS
  5
7
330
0
100
AcDbSymbolTable
 70
     0
  0
ENDTAB
  0
TABLE
  2
APPID
  5
9
330
0
100
AcDbSymbolTable
 70
     4
  0
APPID
  5
12
330
9
100
AcDbSymbolTableRecord
100
AcDbRegAppTableRecord
  2
ACAD
 70
     0
  0
APPID
  5
9E
330
9
100
AcDbSymbolTableRecord
100
AcDbRegAppTableRecord
  2
ACAD_PSEXT
 70
     0
  0
APPID
  5
124
330
9
100
AcDbSymbolTableRecord
100
AcDbRegAppTableRecord
  2
AcAecLayerStandard
 70
     0
  0
APPID
  5
130
330
9
100
AcDbSymbolTableRecord
100
AcDbRegAppTableRecord
  2
ACAD_EXEMPT_FROM_CAD_STANDARDS
 70
     0
  0
ENDTAB
  0
TABLE
  2
DIMSTYLE
  5
A
330
0
100
AcDbSymbolTable
 70
     1
100
AcDbDimStyleTable
 71
     1
340
27
  0
DIMSTYLE
105
27
102
{ACAD_REACTORS
330
3A0
330
73C
330
756
330
770
330
78A
330
7A4
330
7BE
330
812
102
}
330
A
100
AcDbSymbolTableRecord
100
AcDbDimStyleTableRecord
  2
ISO-25
 70
     0
 41
7.5
 42
0.625
 43
3.75
 44
1.25
 73
     0
 74
     0
 78
     8
140
7.5
141
2.5
143
0.03937007874016
147
0.625
171
     3
172
     1
271
     2
272
     2
274
     3
278
    44
283
     0
284
     8
340
11
  0
ENDTAB
  0
TABLE
  2
BLOCK_RECORD
  5
1
330
0
100
AcDbSymbolTable
 70
     9
  0
BLOCK_RECORD
  5
1F
102
{ACAD_XDICTIONARY
360
14B
102
}
330
1
100
AcDbSymbolTableRecord
100
AcDbBlockTableRecord
  2
*Model_Space
340
22
 70
     0
280
     1
281
     0
  0
BLOCK_RECORD
  5
D2
330
1
100
AcDbSymbolTableRecord
100
AcDbBlockTableRecord
  2
*Paper_Space
340
D3
 70
     0
280
     1
281
     0
  0
BLOCK_RECORD
  5
D6
330
1
100
AcDbSymbolTableRecord
100
AcDbBlockTableRecord
  2
*Paper_Space0
340
D7
 70
     0
280
     1
281
     0
  0
BLOCK_RECORD
  5
3A1
330
1
100
AcDbSymbolTableRecord
100
AcDbBlockTableRecord
  2
*D1
340
0
 70
     0
280
     1
281
     0
  0
BLOCK_RECORD
  5
73D
330
1
100
AcDbSymbolTableRecord
100
AcDbBlockTableRecord
  2
*D2
340
0
 70
     0
280
     1
281
     0
  0
BLOCK_RECORD
  5
757
330
1
100
AcDbSymbolTableRecord
100
AcDbBlockTableRecord
  2
*D3
340
0
 70
     0
280
     1
281
     0
  0
BLOCK_RECORD
  5
771
330
1
100
AcDbSymbolTableRecord
100
AcDbBlockTableRecord
  2
*D4
340
0
 70
     0
280
     1
281
     0
  0
BLOCK_RECORD
  5
78B
330
1
100
AcDbSymbolTableRecord
100
AcDbBlockTableRecord
  2
*D5
340
0
 70
     0
280
     1
281
     0
  0
BLOCK_RECORD
  5
7A5
330
1
100
AcDbSymbolTableRecord
100
AcDbBlockTableRecord
  2
*D6
340
0
 70
     0
280
     1
281
     0
  0
BLOCK_RECORD
  5
7BF
330
1
100
AcDbSymbolTableRecord
100
AcDbBlockTableRecord
  2
*D7
340
0
 70
     0
280
     1
281
     0
  0
BLOCK_RECORD
  5
813
330
1
100
AcDbSymbolTableRecord
100
AcDbBlockTableRecord
  2
*D8
340
0
 70
     0
280
     1
281
     0
  0
ENDTAB
  0
ENDSEC
  0
SECTION
  2
BLOCKS
  0
BLOCK
  5
20
330
1F
100
AcDbEntity
  8
0
100
AcDbBlockBegin
  2
*Model_Space
 70
     0
 10
0.0
 20
0.0
 30
0.0
  3
*Model_Space
  1

  0
ENDBLK
  5
21
330
1F
100
AcDbEntity
  8
0
100
AcDbBlockEnd
  0
BLOCK
  5
D4
330
D2
100
AcDbEntity
 67
     1
  8
0
100
AcDbBlockBegin
  2
*Paper_Space
 70
     0
 10
0.0
 20
0.0
 30
0.0
  3
*Paper_Space
  1

  0
ENDBLK
  5
D5
330
D2
100
AcDbEntity
 67
     1
  8
0
100
AcDbBlockEnd
  0
BLOCK
  5
D8
330
D6
100
AcDbEntity
 67
     1
  8
0
100
AcDbBlockBegin
  2
*Paper_Space0
 70
     0
 10
0.0
 20
0.0
 30
0.0
  3
*Paper_Space0
  1

  0
ENDBLK
  5
D9
330
D6
100
AcDbEntity
 67
     1
  8
0
100
AcDbBlockEnd
  0
BLOCK
  5
3AA
330
3A1
100
AcDbEntity
  8
0
100
AcDbBlockBegin
  2
*D1
 70
     1
 10
0.0
 20
0.0
 30
0.0
  3
*D1
  1

  0
LINE
  5
50F
330
3A1
100
AcDbEntity
  8
dim
 62
     0
370
    -2
100
AcDbLine
 10
978.7754889088198
 20
980.5630122915339
 30
0.0
 11
986.275344367104
 21
980.5164493787387
 31
0.0
  0
LINE
  5
510
330
3A1
100
AcDbEntity
  8
dim
 62
     0
370
    -2
100
AcDbLine
 10
1044.274226577833
 20
980.1563628531225
 30
0.0
 11
1051.774082036117
 21
980.1097999403276
 31
0.0
  0
MTEXT
  5
511
330
3A1
100
AcDbEntity
  8
dim
 62
     0
100
AcDbMText
 10
961.5257863554413
 20
980.6701072082567
 30
0.0
 40
7.5
 41
0.0
 46
0.0
 71
     5
 72
     1
  1
{\H1.4x;%%C1\H0.7x;\S11/16;\H1.4286x;"}
 11
0.9999807277711976
 21
-0.0062083883726942
 31
0.0
 73
     1
 44
1.0
  0
LINE
  5
512
330
3A1
100
AcDbEntity
  8
dim
 62
     0
370
    -2
100
AcDbLine
 10
1036.774371119549
 20
980.2029257659178
 30
0.0
 11
993.7751998253878
 21
980.4698864659437
 31
0.0
  0
SOLID
  5
513
330
3A1
100
AcDbEntity
  8
dim
 62
     0
100
AcDbTrace
 10
1044.281987063299
 20
981.4063387628367
 30
0.0
 11
1044.266466092367
 21
978.9063869434087
 31
0.0
 12
1036.774371119549
 22
980.2029257659178
 32
0.0
 13
1036.774371119549
 23
980.2029257659178
 33
0.0
  0
SOLID
  5
514
330
3A1
100
AcDbEntity
  8
dim
 62
     0
100
AcDbTrace
 10
986.2831048525697
 20
981.7664252884528
 30
0.0
 11
986.2675838816381
 21
979.2664734690248
 31
0.0
 12
993.7751998253878
 22
980.4698864659437
 32
0.0
 13
993.7751998253878
 23
980.4698864659437
 33
0.0
  0
POINT
  5
515
330
3A1
100
AcDbEntity
  8
Defpoints
 62
     0
100
AcDbPoint
 10
993.7751998253878
 20
980.4698864659437
 30
0.0
  0
POINT
  5
516
330
3A1
100
AcDbEntity
  8
Defpoints
 62
     0
100
AcDbPoint
 10
1036.774371119549
 20
980.2029257659178
 30
0.0
  0
ENDBLK
  5
3AB
330
3A1
100
AcDbEntity
  8
0
100
AcDbBlockEnd
  0
BLOCK
  5
748
330
73D
100
AcDbEntity
  8
0
100
AcDbBlockBegin
  2
*D2
 70
     1
 10
0.0
 20
0.0
 30
0.0
  3
*D2
  1

  0
LINE
  5
82C
330
73D
100
AcDbEntity
  8
0
 62
     0
370
    -2
100
AcDbLine
 10
752.774785472468
 20
912.2114061159308
 30
0.0
 11
752.774785472468
 21
675.5174703112325
 31
0.0
  0
LINE
  5
82D
330
73D
100
AcDbEntity
  8
0
 62
     0
370
    -2
100
AcDbLine
 10
1277.774785472468
 20
912.2114061159308
 30
0.0
 11
1277.774785472468
 21
675.5174703112325
 31
0.0
  0
LINE
  5
82E
330
73D
100
AcDbEntity
  8
0
 62
     0
370
    -2
100
AcDbLine
 10
760.274785472468
 20
676.7674703112325
 30
0.0
 11
987.7747854724679
 21
676.7674703112325
 31
0.0
  0
LINE
  5
82F
330
73D
100
AcDbEntity
  8
0
 62
     0
370
    -2
100
AcDbLine
 10
1270.274785472468
 20
676.7674703112325
 30
0.0
 11
1042.774785472468
 21
676.7674703112325
 31
0.0
  0
SOLID
  5
830
330
73D
100
AcDbEntity
  8
0
 62
     0
100
AcDbTrace
 10
760.274785472468
 20
678.0174703112325
 30
0.0
 11
760.274785472468
 21
675.5174703112325
 31
0.0
 12
752.774785472468
 22
676.7674703112325
 32
0.0
 13
752.774785472468
 23
676.7674703112325
 33
0.0
  0
SOLID
  5
831
330
73D
100
AcDbEntity
  8
0
 62
     0
100
AcDbTrace
 10
1270.274785472468
 20
678.0174703112325
 30
0.0
 11
1270.274785472468
 21
675.5174703112325
 31
0.0
 12
1277.774785472468
 22
676.7674703112325
 32
0.0
 13
1277.774785472468
 23
676.7674703112325
 33
0.0
  0
MTEXT
  5
832
330
73D
100
AcDbEntity
  8
0
 62
     0
100
AcDbMText
 10
1015.274785472468
 20
676.7674703112325
 30
0.0
 40
7.5
 41
0.0
 46
0.0
 71
     5
 72
     1
  1
20-11/16"
 73
     1
 44
1.0
  0
POINT
  5
833
330
73D
100
AcDbEntity
  8
Defpoints
 62
     0
100
AcDbPoint
 10
752.774785472468
 20
912.8364061159308
 30
0.0
  0
POINT
  5
834
330
73D
100
AcDbEntity
  8
Defpoints
 62
     0
100
AcDbPoint
 10
1277.774785472468
 20
912.8364061159308
 30
0.0
  0
POINT
  5
835
330
73D
100
AcDbEntity
  8
Defpoints
 62
     0
100
AcDbPoint
 10
1277.774785472468
 20
676.7674703112325
 30
0.0
  0
ENDBLK
  5
749
330
73D
100
AcDbEntity
  8
0
100
AcDbBlockEnd
  0
BLOCK
  5
762
330
757
100
AcDbEntity
  8
0
100
AcDbBlockBegin
  2
*D3
 70
     1
 10
0.0
 20
0.0
 30
0.0
  3
*D3
  1

  0
LINE
  5
836
330
757
100
AcDbEntity
  8
0
 62
     0
370
    -2
100
AcDbLine
 10
780.274785472468
 20
912.2114061159308
 30
0.0
 11
780.274785472468
 21
706.9170437100942
 31
0.0
  0
LINE
  5
837
330
757
100
AcDbEntity
  8
0
 62
     0
370
    -2
100
AcDbLine
 10
1250.274785472468
 20
912.2114061159308
 30
0.0
 11
1250.274785472468
 21
706.9170437100942
 31
0.0
  0
LINE
  5
838
330
757
100
AcDbEntity
  8
0
 62
     0
370
    -2
100
AcDbLine
 10
787.774785472468
 20
708.1670437100942
 30
0.0
 11
993.399785472468
 21
708.1670437100942
 31
0.0
  0
LINE
  5
839
330
757
100
AcDbEntity
  8
0
 62
     0
370
    -2
100
AcDbLine
 10
1242.774785472468
 20
708.1670437100942
 30
0.0
 11
1037.149785472468
 21
708.1670437100942
 31
0.0
  0
SOLID
  5
83A
330
757
100
AcDbEntity
  8
0
 62
     0
100
AcDbTrace
 10
787.774785472468
 20
709.4170437100943
 30
0.0
 11
787.774785472468
 21
706.9170437100942
 31
0.0
 12
780.274785472468
 22
708.1670437100942
 32
0.0
 13
780.274785472468
 23
708.1670437100942
 33
0.0
  0
SOLID
  5
83B
330
757
100
AcDbEntity
  8
0
 62
     0
100
AcDbTrace
 10
1242.774785472468
 20
709.4170437100943
 30
0.0
 11
1242.774785472468
 21
706.9170437100942
 31
0.0
 12
1250.274785472468
 22
708.1670437100942
 32
0.0
 13
1250.274785472468
 23
708.1670437100942
 33
0.0
  0
MTEXT
  5
83C
330
757
100
AcDbEntity
  8
0
 62
     0
100
AcDbMText
 10
1015.274785472468
 20
708.1670437100942
 30
0.0
 40
7.5
 41
0.0
 46
0.0
 71
     5
 72
     1
  1
18-1/2"
 73
     1
 44
1.0
  0
POINT
  5
83D
330
757
100
AcDbEntity
  8
Defpoints
 62
     0
100
AcDbPoint
 10
780.274785472468
 20
912.8364061159308
 30
0.0
  0
POINT
  5
83E
330
757
100
AcDbEntity
  8
Defpoints
 62
     0
100
AcDbPoint
 10
1250.274785472468
 20
912.8364061159309
 30
0.0
  0
POINT
  5
83F
330
757
100
AcDbEntity
  8
Defpoints
 62
     0
100
AcDbPoint
 10
1250.274785472468
 20
708.1670437100942
 30
0.0
  0
ENDBLK
  5
763
330
757
100
AcDbEntity
  8
0
100
AcDbBlockEnd
  0
BLOCK
  5
77C
330
771
100
AcDbEntity
  8
0
100
AcDbBlockBegin
  2
*D4
 70
     1
 10
0.0
 20
0.0
 30
0.0
  3
*D4
  1

  0
LINE
  5
84A
330
771
100
AcDbEntity
  8
0
 62
     0
370
    -2
100
AcDbLine
 10
1014.649785472468
 20
1085.336406115931
 30
0.0
 11
680.3347222418024
 21
1085.336406115931
 31
0.0
  0
LINE
  5
84B
330
771
100
AcDbEntity
  8
0
 62
     0
370
    -2
100
AcDbLine
 10
1014.649785472468
 20
740.3364061159309
 30
0.0
 11
680.3347222418023
 21
740.336406115931
 31
0.0
  0
LINE
  5
84C
330
771
100
AcDbEntity
  8
0
 62
     0
370
    -2
100
AcDbLine
 10
681.5847222418024
 20
1077.836406115931
 30
0.0
 11
681.5847222418024
 21
938.4614061159309
 31
0.0
  0
LINE
  5
84D
330
771
100
AcDbEntity
  8
0
 62
     0
370
    -2
100
AcDbLine
 10
681.5847222418023
 20
747.836406115931
 30
0.0
 11
681.5847222418024
 21
887.211406115931
 31
0.0
  0
SOLID
  5
84E
330
771
100
AcDbEntity
  8
0
 62
     0
100
AcDbTrace
 10
680.3347222418024
 20
1077.836406115931
 30
0.0
 11
682.8347222418024
 21
1077.836406115931
 31
0.0
 12
681.5847222418024
 22
1085.336406115931
 32
0.0
 13
681.5847222418024
 23
1085.336406115931
 33
0.0
  0
SOLID
  5
84F
330
771
100
AcDbEntity
  8
0
 62
     0
100
AcDbTrace
 10
680.3347222418023
 20
747.836406115931
 30
0.0
 11
682.8347222418023
 21
747.836406115931
 31
0.0
 12
681.5847222418023
 22
740.336406115931
 32
0.0
 13
681.5847222418023
 23
740.336406115931
 33
0.0
  0
MTEXT
  5
850
330
771
100
AcDbEntity
  8
0
 62
     0
100
AcDbMText
 10
681.5847222418021
 20
912.8364061159311
 30
0.0
 40
7.5
 41
0.0
 46
0.0
 71
     5
 72
     1
  1
13-9/16"
 11
0.0000000000000001
 21
1.0
 31
0.0
 73
     1
 44
1.0
  0
POINT
  5
851
330
771
100
AcDbEntity
  8
Defpoints
 62
     0
100
AcDbPoint
 10
1015.274785472468
 20
1085.336406115931
 30
0.0
  0
POINT
  5
852
330
771
100
AcDbEntity
  8
Defpoints
 62
     0
100
AcDbPoint
 10
1015.274785472468
 20
740.3364061159309
 30
0.0
  0
POINT
  5
853
330
771
100
AcDbEntity
  8
Defpoints
 62
     0
100
AcDbPoint
 10
681.5847222418023
 20
740.336406115931
 30
0.0
  0
ENDBLK
  5
77D
330
771
100
AcDbEntity
  8
0
100
AcDbBlockEnd
  0
BLOCK
  5
796
330
78B
100
AcDbEntity
  8
0
100
AcDbBlockBegin
  2
*D5
 70
     1
 10
0.0
 20
0.0
 30
0.0
  3
*D5
  1

  0
LINE
  5
854
330
78B
100
AcDbEntity
  8
0
 62
     0
370
    -2
100
AcDbLine
 10
1014.649785472468
 20
1055.336406115931
 30
0.0
 11
717.9770895830934
 21
1055.336406115931
 31
0.0
  0
LINE
  5
855
330
78B
100
AcDbEntity
  8
0
 62
     0
370
    -2
100
AcDbLine
 10
1014.649785472468
 20
770.3364061159309
 30
0.0
 11
717.9770895830934
 21
770.336406115931
 31
0.0
  0
LINE
  5
856
330
78B
100
AcDbEntity
  8
0
 62
     0
370
    -2
100
AcDbLine
 10
719.2270895830934
 20
1047.836406115931
 30
0.0
 11
719.2270895830934
 21
933.461406115931
 31
0.0
  0
LINE
  5
857
330
78B
100
AcDbEntity
  8
0
 62
     0
370
    -2
100
AcDbLine
 10
719.2270895830934
 20
777.836406115931
 30
0.0
 11
719.2270895830934
 21
892.2114061159311
 31
0.0
  0
SOLID
  5
858
330
78B
100
AcDbEntity
  8
0
 62
     0
100
AcDbTrace
 10
717.9770895830934
 20
1047.836406115931
 30
0.0
 11
720.4770895830933
 21
1047.836406115931
 31
0.0
 12
719.2270895830934
 22
1055.336406115931
 32
0.0
 13
719.2270895830934
 23
1055.336406115931
 33
0.0
  0
SOLID
  5
859
330
78B
100
AcDbEntity
  8
0
 62
     0
100
AcDbTrace
 10
717.9770895830934
 20
777.836406115931
 30
0.0
 11
720.4770895830933
 21
777.836406115931
 31
0.0
 12
719.2270895830934
 22
770.336406115931
 32
0.0
 13
719.2270895830934
 23
770.336406115931
 33
0.0
  0
MTEXT
  5
85A
330
78B
100
AcDbEntity
  8
0
 62
     0
100
AcDbMText
 10
719.2270895830931
 20
912.8364061159311
 30
0.0
 40
7.5
 41
0.0
 46
0.0
 71
     5
 72
     1
  1
11-1/4"
 11
0.0000000000000001
 21
1.0
 31
0.0
 73
     1
 44
1.0
  0
POINT
  5
85B
330
78B
100
AcDbEntity
  8
Defpoints
 62
     0
100
AcDbPoint
 10
1015.274785472468
 20
1055.336406115931
 30
0.0
  0
POINT
  5
85C
330
78B
100
AcDbEntity
  8
Defpoints
 62
     0
100
AcDbPoint
 10
1015.274785472468
 20
770.3364061159309
 30
0.0
  0
POINT
  5
85D
330
78B
100
AcDbEntity
  8
Defpoints
 62
     0
100
AcDbPoint
 10
719.2270895830934
 20
770.336406115931
 30
0.0
  0
ENDBLK
  5
797
330
78B
100
AcDbEntity
  8
0
100
AcDbBlockEnd
  0
BLOCK
  5
7B0
330
7A5
100
AcDbEntity
  8
0
100
AcDbBlockBegin
  2
*D6
 70
     1
 10
0.0
 20
0.0
 30
0.0
  3
*D6
  1

  0
LINE
  5
8CC
330
7A5
100
AcDbEntity
  8
0
 62
     0
370
    -2
100
AcDbLine
 10
787.2747854724679
 20
913.4614061159307
 30
0.0
 11
787.2747854724679
 21
914.0864061159307
 31
0.0
  0
LINE
  5
8CD
330
7A5
100
AcDbEntity
  8
0
 62
     0
370
    -2
100
AcDbLine
 10
1243.274785472468
 20
913.4614061159307
 30
0.0
 11
1243.274785472468
 21
914.0864061159307
 31
0.0
  0
LINE
  5
8CE
330
7A5
100
AcDbEntity
  8
0
 62
     0
370
    -2
100
AcDbLine
 10
794.774785472468
 20
912.8364061159308
 30
0.0
 11
912.7747854724679
 21
912.8364061159308
 31
0.0
  0
LINE
  5
8CF
330
7A5
100
AcDbEntity
  8
0
 62
     0
370
    -2
100
AcDbLine
 10
1235.774785472468
 20
912.8364061159308
 30
0.0
 11
969.0247854724679
 21
912.8364061159308
 31
0.0
  0
SOLID
  5
8D0
330
7A5
100
AcDbEntity
  8
0
 62
     0
100
AcDbTrace
 10
794.774785472468
 20
914.0864061159307
 30
0.0
 11
794.774785472468
 21
911.5864061159308
 31
0.0
 12
787.2747854724679
 22
912.8364061159308
 32
0.0
 13
787.2747854724679
 23
912.8364061159308
 33
0.0
  0
SOLID
  5
8D1
330
7A5
100
AcDbEntity
  8
0
 62
     0
100
AcDbTrace
 10
1235.774785472468
 20
914.0864061159307
 30
0.0
 11
1235.774785472468
 21
911.5864061159308
 31
0.0
 12
1243.274785472468
 22
912.8364061159308
 32
0.0
 13
1243.274785472468
 23
912.8364061159308
 33
0.0
  0
MTEXT
  5
8D2
330
7A5
100
AcDbEntity
  8
0
 62
     0
100
AcDbMText
 10
940.8997854724679
 20
912.8364061159308
 30
0.0
 40
7.5
 41
0.0
 46
0.0
 71
     5
 72
     1
  1
17-15/16"
 73
     1
 44
1.0
  0
POINT
  5
8D3
330
7A5
100
AcDbEntity
  8
Defpoints
 62
     0
100
AcDbPoint
 10
787.2747854724679
 20
912.8364061159308
 30
0.0
  0
POINT
  5
8D4
330
7A5
100
AcDbEntity
  8
Defpoints
 62
     0
100
AcDbPoint
 10
1243.274785472468
 20
912.8364061159308
 30
0.0
  0
POINT
  5
8D5
330
7A5
100
AcDbEntity
  8
Defpoints
 62
     0
100
AcDbPoint
 10
1243.274785472468
 20
912.8364061159308
 30
0.0
  0
ENDBLK
  5
7B1
330
7A5
100
AcDbEntity
  8
0
100
AcDbBlockEnd
  0
BLOCK
  5
7CA
330
7BF
100
AcDbEntity
  8
0
100
AcDbBlockBegin
  2
*D7
 70
     1
 10
0.0
 20
0.0
 30
0.0
  3
*D7
  1

  0
LINE
  5
8D6
330
7BF
100
AcDbEntity
  8
0
 62
     0
370
    -2
100
AcDbLine
 10
1015.899785472468
 20
1049.336406115931
 30
0.0
 11
1016.524785472468
 21
1049.336406115931
 31
0.0
  0
LINE
  5
8D7
330
7BF
100
AcDbEntity
  8
0
 62
     0
370
    -2
100
AcDbLine
 10
1015.899785472468
 20
776.3364061159308
 30
0.0
 11
1016.524785472468
 21
776.3364061159308
 31
0.0
  0
LINE
  5
8D8
330
7BF
100
AcDbEntity
  8
0
 62
     0
370
    -2
100
AcDbLine
 10
1015.274785472469
 20
1041.836406115931
 30
0.0
 11
1015.274785472469
 21
903.4614061159306
 31
0.0
  0
LINE
  5
8D9
330
7BF
100
AcDbEntity
  8
0
 62
     0
370
    -2
100
AcDbLine
 10
1015.274785472469
 20
783.8364061159309
 30
0.0
 11
1015.274785472469
 21
858.4614061159305
 31
0.0
  0
SOLID
  5
8DA
330
7BF
100
AcDbEntity
  8
0
 62
     0
100
AcDbTrace
 10
1014.024785472469
 20
1041.836406115931
 30
0.0
 11
1016.524785472468
 21
1041.836406115931
 31
0.0
 12
1015.274785472469
 22
1049.336406115931
 32
0.0
 13
1015.274785472469
 23
1049.336406115931
 33
0.0
  0
SOLID
  5
8DB
330
7BF
100
AcDbEntity
  8
0
 62
     0
100
AcDbTrace
 10
1014.024785472469
 20
783.8364061159309
 30
0.0
 11
1016.524785472468
 21
783.8364061159309
 31
0.0
 12
1015.274785472469
 22
776.3364061159308
 32
0.0
 13
1015.274785472469
 23
776.3364061159308
 33
0.0
  0
MTEXT
  5
8DC
330
7BF
100
AcDbEntity
  8
0
 62
     0
100
AcDbMText
 10
1015.274785472468
 20
880.9614061159306
 30
0.0
 40
7.5
 41
0.0
 46
0.0
 71
     5
 72
     1
  1
10-3/4"
 11
0.0000000000000001
 21
1.0
 31
0.0
 73
     1
 44
1.0
  0
POINT
  5
8DD
330
7BF
100
AcDbEntity
  8
Defpoints
 62
     0
100
AcDbPoint
 10
1015.274785472468
 20
1049.336406115931
 30
0.0
  0
POINT
  5
8DE
330
7BF
100
AcDbEntity
  8
Defpoints
 62
     0
100
AcDbPoint
 10
1015.274785472468
 20
776.3364061159308
 30
0.0
  0
POINT
  5
8DF
330
7BF
100
AcDbEntity
  8
Defpoints
 62
     0
100
AcDbPoint
 10
1015.274785472469
 20
776.3364061159308
 30
0.0
  0
ENDBLK
  5
7CB
330
7BF
100
AcDbEntity
  8
0
100
AcDbBlockEnd
  0
BLOCK
  5
81E
330
813
100
AcDbEntity
  8
0
100
AcDbBlockBegin
  2
*D8
 70
     1
 10
0.0
 20
0.0
 30
0.0
  3
*D8
  1

  0
LINE
  5
85E
330
813
100
AcDbEntity
  8
0
 62
     0
370
    -2
100
AcDbLine
 10
1014.649785472468
 20
579.5958762183287
 30
0.0
 11
703.0349413082404
 21
579.5958762183288
 31
0.0
  0
LINE
  5
85F
330
813
100
AcDbEntity
  8
0
 62
     0
370
    -2
100
AcDbLine
 10
977.290602007214
 20
394.4530336505004
 30
0.0
 11
703.0349413082404
 21
394.4530336505004
 31
0.0
  0
LINE
  5
860
330
813
100
AcDbEntity
  8
0
 62
     0
370
    -2
100
AcDbLine
 10
704.2849413082404
 20
572.0958762183288
 30
0.0
 11
704.2849413082404
 21
506.3994549344145
 31
0.0
  0
LINE
  5
861
330
813
100
AcDbEntity
  8
0
 62
     0
370
    -2
100
AcDbLine
 10
704.2849413082404
 20
401.9530336505003
 30
0.0
 11
704.2849413082404
 21
467.6494549344146
 31
0.0
  0
SOLID
  5
862
330
813
100
AcDbEntity
  8
0
 62
     0
100
AcDbTrace
 10
703.0349413082404
 20
572.0958762183288
 30
0.0
 11
705.5349413082403
 21
572.0958762183288
 31
0.0
 12
704.2849413082404
 22
579.5958762183288
 32
0.0
 13
704.2849413082404
 23
579.5958762183288
 33
0.0
  0
SOLID
  5
863
330
813
100
AcDbEntity
  8
0
 62
     0
100
AcDbTrace
 10
703.0349413082404
 20
401.9530336505003
 30
0.0
 11
705.5349413082403
 21
401.9530336505003
 31
0.0
 12
704.2849413082404
 22
394.4530336505004
 32
0.0
 13
704.2849413082404
 23
394.4530336505004
 33
0.0
  0
MTEXT
  5
864
330
813
100
AcDbEntity
  8
0
 62
     0
100
AcDbMText
 10
704.2849413082402
 20
487.0244549344146
 30
0.0
 40
7.5
 41
0.0
 46
0.0
 71
     5
 72
     1
  1
7-1/4"
 11
0.0000000000000001
 21
1.0
 31
0.0
 73
     1
 44
1.0
  0
POINT
  5
865
330
813
100
AcDbEntity
  8
Defpoints
 62
     0
100
AcDbPoint
 10
1015.274785472468
 20
579.5958762183287
 30
0.0
  0
POINT
  5
866
330
813
100
AcDbEntity
  8
Defpoints
 62
     0
100
AcDbPoint
 10
977.9156020072139
 20
394.4530336505004
 30
0.0
  0
POINT
  5
867
330
813
100
AcDbEntity
  8
Defpoints
 62
     0
100
AcDbPoint
 10
704.2849413082404
 20
394.4530336505004
 30
0.0
  0
ENDBLK
  5
81F
330
813
100
AcDbEntity
  8
0
100
AcDbBlockEnd
  0
ENDSEC
  0
SECTION
  2
ENTITIES
  0
CIRCLE
  5
149
102
{ACAD_REACTORS
330
3B5
102
}
330
1F
100
AcDbEntity
  8
con
100
AcDbCircle
 10
1015.274785472468
 20
980.3364061159308
 30
0.0
 40
21.5
  0
LINE
  5
161
102
{ACAD_REACTORS
330
82B
102
}
330
1F
100
AcDbEntity
  8
con
100
AcDbLine
 10
767.7747854724682
 20
579.5958762183287
 30
0.0
 11
1015.274785472468
 21
579.5958762183287
 31
0.0
  0
ARC
  5
179
330
1F
100
AcDbEntity
  8
con
100
AcDbCircle
 10
967.9166222592188
 20
549.5958762183287
 30
0.0
 40
10.0
100
AcDbArc
 50
0.8184554616886604
 51
90.0
  0
ARC
  5
17B
330
1F
100
AcDbEntity
  8
con
100
AcDbCircle
 10
1062.632948685718
 20
549.5958762183287
 30
0.0
 40
10.0
100
AcDbArc
 50
89.99999999999998
 51
179.1815445383113
  0
LINE
  5
199
330
1F
100
AcDbEntity
  8
con
100
AcDbLine
 10
752.7747854724679
 20
559.5958762183287
 30
0.0
 11
967.9166222592188
 21
559.5958762183287
 31
0.0
  0
LINE
  5
19B
330
1F
100
AcDbEntity
  8
con
100
AcDbLine
 10
1062.632948685718
 20
559.5958762183292
 30
0.0
 11
1277.774785472468
 21
559.5958762183287
 31
0.0
  0
DIMENSION
  5
3A0
102
{ACAD_XDICTIONARY
360
3AC
102
}
102
{ACAD_REACTORS
330
3B5
102
}
330
1F
100
AcDbEntity
  8
dim
100
AcDbDimension
  2
*D1
 10
1036.774371119549
 20
980.2029257659178
 30
0.0
 11
961.5257863554413
 21
980.6701072082567
 31
0.0
 70
    35
  1
{\H1.4x;%%C1\H0.7x;\S11/16;\H1.4286x;"}
 71
     5
 42
42.99999999999966
 73
     0
 74
     0
 75
     0
  3
ISO-25
100
AcDbDiametricDimension
 15
993.7751998253878
 25
980.4698864659437
 35
0.0
 40
0.0
1001
ACAD
1000
DSTYLE
1002
{
1070
   288
1070
     1
1002
}
  0
LINE
  5
49A
330
1F
100
AcDbEntity
  8
con
100
AcDbLine
 10
752.774785472468
 20
579.5958762183287
 30
0.0
 11
767.7747854724682
 21
579.5958762183287
 31
0.0
  0
LINE
  5
49B
330
1F
100
AcDbEntity
  8
con
100
AcDbLine
 10
767.7747854724682
 20
579.5958762183287
 30
0.0
 11
1277.774785472468
 21
579.5958762183288
 31
0.0
  0
LEADER
  5
605
330
1F
100
AcDbEntity
  8
dim
100
AcDbLeader
  3
ISO-25
 73
     0
 40
7.812290127602419
 41
117.2901276024177
 76
     3
 10
1243.257635868506
 20
865.9008603696406
 30
0.0
 10
1220.031849698449
 20
882.0473337547777
 30
0.0
 10
1195.291335903807
 20
882.0473337547777
 30
0.0
340
606
213
0.0
223
3.75
233
0.0
1001
ACAD
1000
DSTYLE
1002
{
1070
   147
1040
0.625
1070
    77
1070
     0
1002
}
  0
MTEXT
  5
606
102
{ACAD_REACTORS
330
605
102
}
330
1F
100
AcDbEntity
  8
dim
100
AcDbMText
 10
1194.666335903807
 20
878.2973337547778
 30
0.0
 40
7.5
 41
0.0
 46
0.0
 71
     9
 72
     1
  1
{\fVerdana|b0|i0|c0|p34;CUT\fVerdana|b0|i0|c134|p34; \fVerdana|b0|i0|c0|p34;ALONG\fVerdana|b0|i0|c134|p34; \fVerdana|b0|i0|c0|p34;THIS\fVerdana|b0|i0|c134|p34; \fVerdana|b0|i0|c0|p34;LINE}
 73
     1
 44
1.0
  0
LINE
  5
6D1
330
1F
100
AcDbEntity
  8
con
100
AcDbLine
 10
1277.774785472468
 20
912.8364061159308
 30
0.0
 11
1277.774785472468
 21
1075.336406115931
 31
0.0
  0
LINE
  5
6D2
330
1F
100
AcDbEntity
  8
con
100
AcDbLine
 10
1267.774785472468
 20
1085.336406115931
 30
0.0
 11
762.774785472468
 21
1085.336406115931
 31
0.0
  0
LINE
  5
6D3
330
1F
100
AcDbEntity
  8
con
100
AcDbLine
 10
752.774785472468
 20
1075.336406115931
 30
0.0
 11
752.774785472468
 21
750.3364061159309
 31
0.0
  0
LINE
  5
6D4
330
1F
100
AcDbEntity
  8
con
100
AcDbLine
 10
762.774785472468
 20
740.3364061159309
 30
0.0
 11
1267.774785472468
 21
740.3364061159309
 31
0.0
  0
LINE
  5
6D5
102
{ACAD_REACTORS
330
755
102
}
330
1F
100
AcDbEntity
  8
con
100
AcDbLine
 10
1277.774785472468
 20
750.3364061159309
 30
0.0
 11
1277.774785472468
 21
912.8364061159308
 31
0.0
  0
LINE
  5
6E3
330
1F
100
AcDbEntity
  8
con
100
AcDbLine
 10
752.774785472468
 20
579.5958762183287
 30
0.0
 11
752.774785472468
 21
559.5958762183287
 31
0.0
  0
LINE
  5
6E4
330
1F
100
AcDbEntity
  8
con
100
AcDbLine
 10
1277.774785472468
 20
579.5958762183287
 30
0.0
 11
1277.774785472468
 21
559.5958762183288
 31
0.0
  0
LINE
  5
716
330
1F
100
AcDbEntity
  8
con
100
AcDbLine
 10
1250.274785472468
 20
912.8364061159308
 30
0.0
 11
1250.274785472468
 21
1045.336406115931
 31
0.0
  0
LINE
  5
717
330
1F
100
AcDbEntity
  8
con
100
AcDbLine
 10
1240.274785472468
 20
1055.336406115931
 30
0.0
 11
790.2747854724679
 21
1055.336406115931
 31
0.0
  0
LINE
  5
718
330
1F
100
AcDbEntity
  8
con
100
AcDbLine
 10
780.2747854724679
 20
1045.336406115931
 30
0.0
 11
780.274785472468
 21
780.3364061159308
 31
0.0
  0
LINE
  5
719
330
1F
100
AcDbEntity
  8
con
100
AcDbLine
 10
790.274785472468
 20
770.3364061159309
 30
0.0
 11
1240.274785472468
 21
770.3364061159309
 31
0.0
  0
LINE
  5
71A
102
{ACAD_REACTORS
330
76F
102
}
330
1F
100
AcDbEntity
  8
con
100
AcDbLine
 10
1250.274785472468
 20
780.3364061159308
 30
0.0
 11
1250.274785472468
 21
912.8364061159309
 31
0.0
  0
ARC
  5
71B
330
1F
100
AcDbEntity
  8
con
100
AcDbCircle
 10
1240.274785472468
 20
1045.336406115931
 30
0.0
 40
10.0
100
AcDbArc
 50
0.0
 51
90.0
  0
ARC
  5
71C
330
1F
100
AcDbEntity
  8
con
100
AcDbCircle
 10
1240.274785472468
 20
780.3364061159308
 30
0.0
 40
10.0
100
AcDbArc
 50
270.0
 51
0.0
  0
ARC
  5
71D
330
1F
100
AcDbEntity
  8
con
100
AcDbCircle
 10
790.274785472468
 20
780.3364061159308
 30
0.0
 40
10.0
100
AcDbArc
 50
180.0
 51
270.0
  0
ARC
  5
71E
330
1F
100
AcDbEntity
  8
con
100
AcDbCircle
 10
790.2747854724679
 20
1045.336406115931
 30
0.0
 40
10.0
100
AcDbArc
 50
90.0
 51
180.0
  0
ARC
  5
71F
330
1F
100
AcDbEntity
  8
con
100
AcDbCircle
 10
762.774785472468
 20
1075.336406115931
 30
0.0
 40
10.0
100
AcDbArc
 50
90.0
 51
180.0
  0
ARC
  5
720
330
1F
100
AcDbEntity
  8
con
100
AcDbCircle
 10
762.774785472468
 20
750.3364061159309
 30
0.0
 40
10.0
100
AcDbArc
 50
180.0
 51
270.0
  0
ARC
  5
721
330
1F
100
AcDbEntity
  8
con
100
AcDbCircle
 10
1267.774785472468
 20
750.3364061159309
 30
0.0
 40
10.0
100
AcDbArc
 50
270.0
 51
0.0
  0
ARC
  5
722
330
1F
100
AcDbEntity
  8
con
100
AcDbCircle
 10
1267.774785472468
 20
1075.336406115931
 30
0.0
 40
10.0
100
AcDbArc
 50
0.0
 51
89.99999999999998
  0
LINE
  5
724
330
1F
100
AcDbEntity
  8
con
100
AcDbLine
 10
825.2747854724679
 20
429.5958762183286
 30
0.0
 11
977.9156020072139
 21
429.5958762183285
 31
0.0
  0
LINE
  5
725
330
1F
100
AcDbEntity
  8
con
100
AcDbLine
 10
772.774785472468
 20
559.5958762183287
 30
0.0
 11
825.2747854724679
 21
429.5958762183287
 31
0.0
  0
LINE
  5
726
330
1F
100
AcDbEntity
  8
con
100
AcDbLine
 10
1257.774785472468
 20
559.5958762183288
 30
0.0
 11
1205.274785472468
 21
429.5958762183287
 31
0.0
  0
LINE
  5
727
330
1F
100
AcDbEntity
  8
con
100
AcDbLine
 10
977.9156020072139
 20
394.4530336505005
 30
0.0
 11
1052.633968937723
 21
394.4530336505004
 31
0.0
  0
LINE
  5
72B
330
1F
100
AcDbEntity
  8
con
100
AcDbLine
 10
1052.633968937723
 20
429.5958762183285
 30
0.0
 11
1205.274785472468
 21
429.5958762183286
 31
0.0
  0
LINE
  5
72E
330
1F
100
AcDbEntity
  8
图层1
100
AcDbLine
 10
780.274785472468
 20
579.5958762183287
 30
0.0
 11
832.774785472468
 21
449.5958762183287
 31
0.0
  0
LINE
  5
72F
330
1F
100
AcDbEntity
  8
图层1
100
AcDbLine
 10
1250.274785472468
 20
579.5958762183289
 30
0.0
 11
1197.774785472468
 21
449.5958762183288
 31
0.0
  0
LINE
  5
730
330
1F
100
AcDbEntity
  8
图层1
100
AcDbLine
 10
832.774785472468
 20
449.5958762183287
 30
0.0
 11
1197.774785472468
 21
449.5958762183288
 31
0.0
  0
LINE
  5
732
330
1F
100
AcDbEntity
  8
dash
100
AcDbLine
 10
1015.274785472468
 20
912.8364061159308
 30
0.0
 11
1243.274785472468
 21
912.8364061159308
 31
0.0
  0
LINE
  5
733
330
1F
100
AcDbEntity
  8
dash
100
AcDbLine
 10
1243.274785472468
 20
912.8364061159308
 30
0.0
 11
1243.274785472468
 21
1039.336406115931
 31
0.0
  0
LINE
  5
734
330
1F
100
AcDbEntity
  8
dash
100
AcDbLine
 10
1233.274785472468
 20
1049.336406115931
 30
0.0
 11
797.274785472468
 21
1049.336406115931
 31
0.0
  0
LINE
  5
735
330
1F
100
AcDbEntity
  8
dash
100
AcDbLine
 10
787.2747854724679
 20
1039.336406115931
 30
0.0
 11
787.2747854724679
 21
786.3364061159309
 31
0.0
  0
LINE
  5
736
330
1F
100
AcDbEntity
  8
dash
100
AcDbLine
 10
797.274785472468
 20
776.3364061159308
 30
0.0
 11
1233.274785472468
 21
776.3364061159308
 31
0.0
  0
LINE
  5
737
102
{ACAD_REACTORS
330
7BD
102
}
330
1F
100
AcDbEntity
  8
dash
100
AcDbLine
 10
1243.274785472468
 20
786.3364061159309
 30
0.0
 11
1243.274785472468
 21
912.8364061159308
 31
0.0
  0
ARC
  5
738
330
1F
100
AcDbEntity
  8
dash
100
AcDbCircle
 10
1233.274785472468
 20
786.3364061159309
 30
0.0
 40
10.0
100
AcDbArc
 50
270.0
 51
0.0
  0
ARC
  5
739
330
1F
100
AcDbEntity
  8
dash
100
AcDbCircle
 10
797.274785472468
 20
786.3364061159309
 30
0.0
 40
10.0
100
AcDbArc
 50
180.0
 51
270.0
  0
ARC
  5
73A
330
1F
100
AcDbEntity
  8
dash
100
AcDbCircle
 10
797.274785472468
 20
1039.336406115931
 30
0.0
 40
10.0
100
AcDbArc
 50
90.0
 51
180.0
  0
ARC
  5
73B
330
1F
100
AcDbEntity
  8
dash
100
AcDbCircle
 10
1233.274785472468
 20
1039.336406115931
 30
0.0
 40
10.0
100
AcDbArc
 50
0.0
 51
90.0
  0
DIMENSION
  5
73C
102
{ACAD_XDICTIONARY
360
74A
102
}
102
{ACAD_REACTORS
330
755
102
}
330
1F
100
AcDbEntity
  8
0
100
AcDbDimension
  2
*D2
 10
1277.774785472468
 20
676.7674703112325
 30
0.0
 11
1015.274785472468
 21
676.7674703112325
 31
0.0
 70
    32
  1
20-11/16"
 71
     5
 42
525.0
 73
     0
 74
     0
 75
     0
  3
ISO-25
100
AcDbAlignedDimension
 13
752.774785472468
 23
912.8364061159308
 33
0.0
 14
1277.774785472468
 24
912.8364061159308
 34
0.0
100
AcDbRotatedDimension
  0
DIMENSION
  5
756
102
{ACAD_XDICTIONARY
360
764
102
}
102
{ACAD_REACTORS
330
76F
102
}
330
1F
100
AcDbEntity
  8
0
100
AcDbDimension
  2
*D3
 10
1250.274785472468
 20
708.1670437100942
 30
0.0
 11
1015.274785472468
 21
708.1670437100942
 31
0.0
 70
    32
  1
18-1/2"
 71
     5
 42
470.0
 73
     0
 74
     0
 75
     0
  3
ISO-25
100
AcDbAlignedDimension
 13
780.274785472468
 23
912.8364061159308
 33
0.0
 14
1250.274785472468
 24
912.8364061159309
 34
0.0
100
AcDbRotatedDimension
  0
DIMENSION
  5
770
330
1F
100
AcDbEntity
  8
0
100
AcDbDimension
  2
*D4
 10
681.5847222418023
 20
740.336406115931
 30
0.0
 11
681.5847222418021
 21
912.8364061159311
 31
0.0
 70
    32
  1
13-9/16"
 71
     5
 42
345.0
 73
     0
 74
     0
 75
     0
  3
ISO-25
100
AcDbAlignedDimension
 13
1015.274785472468
 23
1085.336406115931
 33
0.0
 14
1015.274785472468
 24
740.3364061159309
 34
0.0
 50
90.0
100
AcDbRotatedDimension
  0
DIMENSION
  5
78A
330
1F
100
AcDbEntity
  8
0
100
AcDbDimension
  2
*D5
 10
719.2270895830934
 20
770.336406115931
 30
0.0
 11
719.2270895830931
 21
912.8364061159311
 31
0.0
 70
    32
  1
11-1/4"
 71
     5
 42
285.0
 73
     0
 74
     0
 75
     0
  3
ISO-25
100
AcDbAlignedDimension
 13
1015.274785472468
 23
1055.336406115931
 33
0.0
 14
1015.274785472468
 24
770.3364061159309
 34
0.0
 50
90.0
100
AcDbRotatedDimension
  0
DIMENSION
  5
7A4
102
{ACAD_XDICTIONARY
360
7B2
102
}
102
{ACAD_REACTORS
330
7BD
102
}
330
1F
100
AcDbEntity
  8
0
100
AcDbDimension
  2
*D6
 10
1243.274785472468
 20
912.8364061159308
 30
0.0
 11
940.8997854724679
 21
912.8364061159308
 31
0.0
 70
   160
  1
17-15/16"
 71
     5
 42
456.0
 73
     0
 74
     0
 75
     0
  3
ISO-25
100
AcDbAlignedDimension
 13
787.2747854724679
 23
912.8364061159308
 33
0.0
 14
1243.274785472468
 24
912.8364061159308
 34
0.0
100
AcDbRotatedDimension
  0
DIMENSION
  5
7BE
330
1F
100
AcDbEntity
  8
0
100
AcDbDimension
  2
*D7
 10
1015.274785472469
 20
776.3364061159308
 30
0.0
 11
1015.274785472468
 21
880.9614061159306
 31
0.0
 70
   160
  1
10-3/4"
 71
     5
 42
273.0
 73
     0
 74
     0
 75
     0
  3
ISO-25
100
AcDbAlignedDimension
 13
1015.274785472468
 23
1049.336406115931
 33
0.0
 14
1015.274785472468
 24
776.3364061159308
 34
0.0
 50
90.0
100
AcDbRotatedDimension
  0
LINE
  5
810
102
{ACAD_REACTORS
330
82B
102
}
330
1F
100
AcDbEntity
  8
con
100
AcDbLine
 10
977.9156020072139
 20
549.7387187861573
 30
0.0
 11
977.9156020072139
 21
394.4530336505004
 31
0.0
  0
LINE
  5
811
330
1F
100
AcDbEntity
  8
con
100
AcDbLine
 10
1052.633968937723
 20
549.7387187861573
 30
0.0
 11
1052.633968937723
 21
394.4530336505004
 31
0.0
  0
DIMENSION
  5
812
102
{ACAD_XDICTIONARY
360
820
102
}
102
{ACAD_REACTORS
330
82B
102
}
330
1F
100
AcDbEntity
  8
0
100
AcDbDimension
  2
*D8
 10
704.2849413082404
 20
394.4530336505004
 30
0.0
 11
704.2849413082402
 21
487.0244549344146
 31
0.0
 70
    32
  1
7-1/4"
 71
     5
 42
185.1428425678284
 73
     0
 74
     0
 75
     0
  3
ISO-25
100
AcDbAlignedDimension
 13
1015.274785472468
 23
579.5958762183287
 33
0.0
 14
977.9156020072139
 24
394.4530336505004
 34
0.0
 50
90.0
100
AcDbRotatedDimension
  0
LINE
  5
8F1
102
{ACAD_REACTORS
330
82B
102
}
330
1F
100
AcDbEntity
  8
图层1
100
AcDbLine
 10
992.9156020072138
 20
449.5958762183288
 30
0.0
 11
992.915602007214
 21
394.4530336505004
 31
0.0
  0
LINE
  5
8F2
330
1F
100
AcDbEntity
  8
图层1
100
AcDbLine
 10
1037.633968937723
 20
449.5958762183288
 30
0.0
 11
1037.633968937723
 21
394.4530336505004
 31
0.0
  0
ENDSEC
  0
SECTION
  2
OBJECTS
  0
DICTIONARY
  5
C
330
0
100
AcDbDictionary
281
     1
  3
ACAD_COLOR
350
6B
  3
ACAD_GROUP
350
D
  3
ACAD_LAYOUT
350
1A
  3
ACAD_MATERIAL
350
6A
  3
ACAD_MLINESTYLE
350
17
  3
ACAD_PLOTSETTINGS
350
19
  3
ACAD_PLOTSTYLENAME
350
E
  3
ACAD_TABLESTYLE
350
7E
  3
ACAD_VISUALSTYLE
350
F0
  3
AcDbVariableDictionary
350
5E
  0
DICTIONARY
  5
12C
330
2
100
AcDbDictionary
280
     1
281
     1
  3
ACAD_LAYERFILTERS
360
60A
  3
ACLYDICTIONARY
360
609
  0
DICTIONARY
  5
14B
330
1F
100
AcDbDictionary
280
     1
281
     1
  3
ACAD_SORTENTS
360
14C
  0
DICTIONARY
  5
3AC
330
3A0
100
AcDbDictionary
280
     1
281
     1
  3
ACAD_DIMASSOC
360
3B5
  0
DICTIONARY
  5
74A
330
73C
100
AcDbDictionary
280
     1
281
     1
  3
ACAD_DIMASSOC
360
755
  0
DICTIONARY
  5
764
330
756
100
AcDbDictionary
280
     1
281
     1
  3
ACAD_DIMASSOC
360
76F
  0
DICTIONARY
  5
7B2
330
7A4
100
AcDbDictionary
280
     1
281
     1
  3
ACAD_DIMASSOC
360
7BD
  0
DICTIONARY
  5
820
330
812
100
AcDbDictionary
280
     1
281
     1
  3
ACAD_DIMASSOC
360
82B
  0
DICTIONARY
  5
6B
102
{ACAD_REACTORS
330
C
102
}
330
C
100
AcDbDictionary
281
     1
  0
DICTIONARY
  5
D
102
{ACAD_REACTORS
330
C
102
}
330
C
100
AcDbDictionary
281
     1
  0
DICTIONARY
  5
1A
102
{ACAD_REACTORS
330
C
102
}
330
C
100
AcDbDictionary
281
     1
  3
Model
350
22
  3
布局1
350
D3
  3
布局2
350
D7
  0
DICTIONARY
  5
6A
102
{ACAD_REACTORS
330
C
102
}
330
C
100
AcDbDictionary
281
     1
  3
ByBlock
350
EE
  3
ByLayer
350
ED
  3
Global
350
EF
  0
DICTIONARY
  5
17
102
{ACAD_REACTORS
330
C
102
}
330
C
100
AcDbDictionary
281
     1
  3
Standard
350
18
  0
DICTIONARY
  5
19
102
{ACAD_REACTORS
330
C
102
}
330
C
100
AcDbDictionary
281
     1
  0
ACDBDICTIONARYWDFLT
  5
E
102
{ACAD_REACTORS
330
C
102
}
330
C
100
AcDbDictionary
281
     1
  3
Normal
350
F
100
AcDbDictionaryWithDefault
340
F
  0
DICTIONARY
  5
7E
102
{ACAD_REACTORS
330
C
102
}
330
C
100
AcDbDictionary
281
     1
  3
Standard
350
7F
  0
DICTIONARY
  5
F0
102
{ACAD_REACTORS
330
C
102
}
330
C
100
AcDbDictionary
281
     1
  3
2dWireframe
350
F6
  3
3D Hidden
350
F8
  3
3dWireframe
350
F7
  3
Basic
350
F5
  3
Brighten
350
FC
  3
ColorChange
350
100
  3
Conceptual
350
F9
  3
Dim
350
FB
  3
Facepattern
350
FF
  3
Flat
350
F1
  3
FlatWithEdges
350
F2
  3
Gouraud
350
F3
  3
GouraudWithEdges
350
F4
  3
Linepattern
350
FE
  3
Realistic
350
FA
  3
Thicken
350
FD
  0
DICTIONARY
  5
5E
102
{ACAD_REACTORS
330
C
102
}
330
C
100
AcDbDictionary
281
     1
  3
CTABLESTYLE
350
84
  3
DIMASSOC
350
5F
  3
HIDETEXT
350
63
  0
DICTIONARY
  5
60A
102
{ACAD_REACTORS
330
12C
102
}
330
12C
100
AcDbDictionary
281
     1
  0
DICTIONARY
  5
609
102
{ACAD_REACTORS
330
12C
102
}
330
12C
100
AcDbDictionary
281
     1
1001
ACAD
1000
<All
  0
SORTENTSTABLE
  5
14C
102
{ACAD_REACTORS
330
14B
102
}
330
14B
100
AcDbSortentsTable
330
1F
331
71D
  5
721
331
73B
  5
734
331
49A
  5
49A
331
716
  5
71C
331
734
  5
735
331
725
  5
726
331
71E
  5
71F
331
73C
  5
73C
331
49B
  5
49B
331
717
  5
71E
331
7BE
  5
7BE
331
735
  5
737
331
726
  5
727
331
6D1
  5
6D5
331
71F
  5
6E2
331
72E
  5
72E
331
718
  5
720
331
736
  5
739
331
727
  5
72B
331
78A
  5
78A
331
149
  5
153
331
6D2
  5
6D8
331
720
  5
6E1
331
72F
  5
72F
331
719
  5
722
331
161
  5
175
331
737
  5
73A
331
730
  5
730
331
6D3
  5
6E0
331
721
  5
701
331
3A0
  5
3CC
331
756
  5
756
331
179
  5
177
331
810
  5
810
331
199
  5
19B
331
738
  5
73B
331
71A
  5
724
331
6E3
  5
707
331
8F1
  5
811
331
605
  5
6D1
331
6D4
  5
6E3
331
722
  5
6D9
331
811
  5
8F1
331
71B
  5
71D
331
6E4
  5
71B
331
739
  5
738
331
606
  5
6D2
331
6D5
  5
6E4
331
732
  5
732
331
7A4
  5
7A4
331
17B
  5
17B
331
812
  5
8F3
331
19B
  5
19C
331
71C
  5
725
331
73A
  5
736
331
72B
  5
6C7
331
770
  5
770
331
733
  5
733
331
724
  5
6C6
  0
DIMASSOC
  5
3B5
102
{ACAD_REACTORS
330
3AC
102
}
330
3AC
100
AcDbDimAssoc
330
3A0
 90
        2
 70
     0
 71
     0
  1
AcDbOsnapPointRef
 72
     3
331
149
 73
     2
 91
        0
 40
0.0
 10
0.0
 20
0.0
 30
0.0
 75
     0
  0
DIMASSOC
  5
755
102
{ACAD_REACTORS
330
74A
102
}
330
74A
100
AcDbDimAssoc
330
73C
 90
        2
 70
     0
 71
     0
  1
AcDbOsnapPointRef
 72
     1
331
6D5
 73
     2
 91
        0
 40
1.0
 10
0.0
 20
0.0
 30
2.000000000000000E+50
 75
     0
  0
DIMASSOC
  5
76F
102
{ACAD_REACTORS
330
764
102
}
330
764
100
AcDbDimAssoc
330
756
 90
        2
 70
     0
 71
     0
  1
AcDbOsnapPointRef
 72
     1
331
71A
 73
     2
 91
        0
 40
1.0
 10
0.0
 20
0.0
 30
2.000000000000000E+50
 75
     0
  0
DIMASSOC
  5
7BD
102
{ACAD_REACTORS
330
7B2
102
}
330
7B2
100
AcDbDimAssoc
330
7A4
 90
        2
 70
     0
 71
     0
  1
AcDbOsnapPointRef
 72
     1
331
737
 73
     2
 91
        0
 40
1.0
 10
0.0
 20
0.0
 30
2.000000000000000E+50
 75
     0
  0
DIMASSOC
  5
82B
102
{ACAD_REACTORS
330
820
102
}
330
820
100
AcDbDimAssoc
330
812
 90
        3
 70
     0
 71
     0
  1
AcDbOsnapPointRef
 72
     1
331
161
 73
     2
 91
        0
 40
1.0
 10
0.0
 20
0.0
 30
2.000000000000000E+50
 75
     0
  1
AcDbOsnapPointRef
 72
     1
331
810
 73
     2
 91
        0
 40
1.0
 10
0.0
 20
0.0
 30
2.000000000000000E+50
 75
     0
  0
LAYOUT
  5
22
102
{ACAD_REACTORS
330
1A
102
}
330
1A
100
AcDbPlotSettings
  1

  2
none_device
  4
ISO_A4_(210.00_x_297.00_MM)
  6

 40
7.5
 41
20.0
 42
7.5
 43
20.0
 44
210.0
 45
297.0
 46
11.54999923706054
 47
-13.65000009536743
 48
0.0
 49
0.0
140
0.0
141
0.0
142
1.0
143
8.704084754739808
 70
 11952
 72
     1
 73
     0
 74
     0
  7

 75
     0
147
0.1148885871608098
 76
     0
 77
     2
 78
   300
148
0.0
149
0.0
100
AcDbLayout
  1
Model
 70
     1
 71
     0
 10
0.0
 20
0.0
 11
12.0
 21
9.0
 12
0.0
 22
0.0
 32
0.0
 14
0.0
 24
0.0
 34
0.0
 15
0.0
 25
0.0
 35
0.0
146
0.0
 13
0.0
 23
0.0
 33
0.0
 16
1.0
 26
0.0
 36
0.0
 17
0.0
 27
1.0
 37
0.0
 76
     0
330
1F
331
EB
1001
ACAD_PSEXT
1000
None
1000
None
1000
Not applicable
1000
The layout will not be plotted unless a new plotter configuration name is selected.
1070
     0
  0
LAYOUT
  5
D3
102
{ACAD_REACTORS
330
1A
102
}
330
1A
100
AcDbPlotSettings
  1

  2
C:\Documents and Settings\basas\Application Data\Autodesk\AutoCAD 2005\R16.1\enu\plotters\Default Windows System Printer.pc3
  4

  6

 40
0.0
 41
0.0
 42
0.0
 43
0.0
 44
0.0
 45
0.0
 46
0.0
 47
0.0
 48
0.0
 49
0.0
140
0.0
141
0.0
142
1.0
143
1.0
 70
   688
 72
     0
 73
     0
 74
     5
  7

 75
    16
147
1.0
 76
     0
 77
     2
 78
   300
148
0.0
149
0.0
100
AcDbLayout
  1
布局1
 70
     1
 71
     1
 10
0.0
 20
0.0
 11
12.0
 21
9.0
 12
0.0
 22
0.0
 32
0.0
 14
0.0
 24
0.0
 34
0.0
 15
0.0
 25
0.0
 35
0.0
146
0.0
 13
0.0
 23
0.0
 33
0.0
 16
1.0
 26
0.0
 36
0.0
 17
0.0
 27
1.0
 37
0.0
 76
     0
330
D2
  0
LAYOUT
  5
D7
102
{ACAD_REACTORS
330
1A
102
}
330
1A
100
AcDbPlotSettings
  1

  2
C:\Documents and Settings\basas\Application Data\Autodesk\AutoCAD 2005\R16.1\enu\plotters\Default Windows System Printer.pc3
  4

  6

 40
0.0
 41
0.0
 42
0.0
 43
0.0
 44
0.0
 45
0.0
 46
0.0
 47
0.0
 48
0.0
 49
0.0
140
0.0
141
0.0
142
1.0
143
1.0
 70
   688
 72
     0
 73
     0
 74
     5
  7

 75
    16
147
1.0
 76
     0
 77
     2
 78
   300
148
0.0
149
0.0
100
AcDbLayout
  1
布局2
 70
     1
 71
     2
 10
0.0
 20
0.0
 11
12.0
 21
9.0
 12
0.0
 22
0.0
 32
0.0
 14
0.0
 24
0.0
 34
0.0
 15
0.0
 25
0.0
 35
0.0
146
0.0
 13
0.0
 23
0.0
 33
0.0
 16
1.0
 26
0.0
 36
0.0
 17
0.0
 27
1.0
 37
0.0
 76
     0
330
D6
  0
MATERIAL
  5
EE
102
{ACAD_REACTORS
330
6A
102
}
330
6A
100
AcDbMaterial
  1
ByBlock
  0
MATERIAL
  5
ED
102
{ACAD_REACTORS
330
6A
102
}
330
6A
100
AcDbMaterial
  1
ByLayer
  0
MATERIAL
  5
EF
102
{ACAD_REACTORS
330
6A
102
}
330
6A
100
AcDbMaterial
  1
Global
  0
MLINESTYLE
  5
18
102
{ACAD_REACTORS
330
17
102
}
330
17
100
AcDbMlineStyle
  2
STANDARD
 70
     0
  3

 62
   256
 51
90.0
 52
90.0
 71
     2
 49
0.5
 62
   256
  6
BYLAYER
 49
-0.5
 62
   256
  6
BYLAYER
  0
ACDBPLACEHOLDER
  5
F
102
{ACAD_REACTORS
330
E
102
}
330
E
  0
TABLESTYLE
  5
7F
102
{ACAD_REACTORS
330
7E
102
}
330
7E
100
AcDbTableStyle
  3
Standard
 70
     0
 71
     0
 40
1.5
 41
1.5
280
     0
281
     0
  7
Standard
140
4.5
170
     2
 62
     0
 63
     7
283
     0
 90
      512
 91
        0
  1

274
    -2
284
     1
 64
     0
275
    -2
285
     1
 65
     0
276
    -2
286
     1
 66
     0
277
    -2
287
     1
 67
     0
278
    -2
288
     1
 68
     0
279
    -2
289
     1
 69
     0
  7
Standard
140
6.0
170
     5
 62
     0
 63
     7
283
     0
 90
      512
 91
        0
  1

274
    -2
284
     1
 64
     0
275
    -2
285
     1
 65
     0
276
    -2
286
     1
 66
     0
277
    -2
287
     1
 67
     0
278
    -2
288
     1
 68
     0
279
    -2
289
     1
 69
     0
  7
Standard
140
4.5
170
     5
 62
     0
 63
     7
283
     0
 90
      512
 91
        0
  1

274
    -2
284
     1
 64
     0
275
    -2
285
     1
 65
     0
276
    -2
286
     1
 66
     0
277
    -2
287
     1
 67
     0
278
    -2
288
     1
 68
     0
279
    -2
289
     1
 69
     0
  0
VISUALSTYLE
  5
F6
102
{ACAD_REACTORS
330
F0
102
}
330
F0
100
AcDbVisualStyle
  2
2dWireframe
 70
     4
 71
     0
 72
     2
 73
     1
 90
        0
 40
-0.6
 41
-30.0
 62
     5
 63
     7
421
 16777215
 74
     1
 91
        4
 64
     7
 65
   257
 75
     1
175
     1
 42
1.0
 92
        0
 66
   257
 43
1.0
 76
     1
 77
     6
 78
     2
 67
     7
 79
     5
170
     0
171
     0
290
     0
174
     0
 93
        1
 44
0.0
173
     0
291
     0
 45
0.0
  0
VISUALSTYLE
  5
F8
102
{ACAD_REACTORS
330
F0
102
}
330
F0
100
AcDbVisualStyle
  2
3D Hidden
 70
     6
 71
     1
 72
     2
 73
     2
 90
        0
 40
-0.6
 41
-30.0
 62
     5
 63
     7
421
 16777215
 74
     2
 91
        2
 64
     7
 65
   257
 75
     2
175
     1
 42
40.0
 92
        0
 66
   257
 43
1.0
 76
     1
 77
     6
 78
     2
 67
     7
 79
     3
170
     0
171
     0
290
     0
174
     0
 93
        1
 44
0.0
173
     0
291
     0
 45
0.0
  0
VISUALSTYLE
  5
F7
102
{ACAD_REACTORS
330
F0
102
}
330
F0
100
AcDbVisualStyle
  2
3dWireframe
 70
     5
 71
     0
 72
     2
 73
     1
 90
        0
 40
-0.6
 41
-30.0
 62
     5
 63
     7
421
 16777215
 74
     1
 91
        4
 64
     7
 65
   257
 75
     1
175
     1
 42
1.0
 92
        0
 66
   257
 43
1.0
 76
     1
 77
     6
 78
     2
 67
     7
 79
     5
170
     0
171
     0
290
     0
174
     0
 93
        1
 44
0.0
173
     0
291
     0
 45
0.0
  0
VISUALSTYLE
  5
F5
102
{ACAD_REACTORS
330
F0
102
}
330
F0
100
AcDbVisualStyle
  2
Basic
 70
     7
 71
     1
 72
     0
 73
     1
 90
        0
 40
-0.6
 41
-30.0
 62
     5
 63
     7
421
 16777215
 74
     0
 91
        4
 64
     7
 65
   257
 75
     1
175
     1
 42
1.0
 92
        8
 66
     7
 43
1.0
 76
     1
 77
     6
 78
     2
 67
     7
 79
     5
170
     0
171
     0
290
     0
174
     0
 93
        1
 44
0.0
173
     0
291
     1
 45
0.0
  0
VISUALSTYLE
  5
FC
102
{ACAD_REACTORS
330
F0
102
}
330
F0
100
AcDbVisualStyle
  2
Brighten
 70
    12
 71
     2
 72
     2
 73
     1
 90
        0
 40
-0.6
 41
-30.0
 62
     5
 63
     7
421
 16777215
 74
     1
 91
        4
 64
     7
 65
   257
 75
     1
175
     1
 42
1.0
 92
        8
 66
     7
 43
1.0
 76
     1
 77
     6
 78
     2
 67
     7
 79
     5
170
     0
171
     0
290
     0
174
     0
 93
        1
 44
50.0
173
     0
291
     1
 45
0.0
  0
VISUALSTYLE
  5
100
102
{ACAD_REACTORS
330
F0
102
}
330
F0
100
AcDbVisualStyle
  2
ColorChange
 70
    16
 71
     2
 72
     2
 73
     3
 90
        0
 40
-0.6
 41
-30.0
 62
     5
 63
     8
421
  8421504
 74
     1
 91
        4
 64
     7
 65
   257
 75
     1
175
     1
 42
1.0
 92
        8
 66
     8
424
  8421504
 43
1.0
 76
     1
 77
     6
 78
     2
 67
     7
 79
     5
170
     0
171
     0
290
     0
174
     0
 93
        1
 44
0.0
173
     0
291
     1
 45
0.0
  0
VISUALSTYLE
  5
F9
102
{ACAD_REACTORS
330
F0
102
}
330
F0
100
AcDbVisualStyle
  2
Conceptual
 70
     9
 71
     3
 72
     2
 73
     1
 90
        0
 40
-0.6
 41
-30.0
 62
     5
 63
     7
421
 16777215
 74
     2
 91
        2
 64
     7
 65
   257
 75
     1
175
     1
 42
40.0
 92
        8
 66
     7
 43
1.0
 76
     1
 77
     6
 78
     2
 67
     7
 79
     3
170
     0
171
     0
290
     0
174
     0
 93
        1
 44
0.0
173
     0
291
     0
 45
0.0
  0
VISUALSTYLE
  5
FB
102
{ACAD_REACTORS
330
F0
102
}
330
F0
100
AcDbVisualStyle
  2
Dim
 70
    11
 71
     2
 72
     2
 73
     1
 90
        0
 40
-0.6
 41
-30.0
 62
     5
 63
     7
421
 16777215
 74
     1
 91
        4
 64
     7
 65
   257
 75
     1
175
     1
 42
1.0
 92
        8
 66
     7
 43
1.0
 76
     1
 77
     6
 78
     2
 67
     7
 79
     5
170
     0
171
     0
290
     0
174
     0
 93
        1
 44
-50.0
173
     0
291
     1
 45
0.0
  0
VISUALSTYLE
  5
FF
102
{ACAD_REACTORS
330
F0
102
}
330
F0
100
AcDbVisualStyle
  2
Facepattern
 70
    15
 71
     2
 72
     2
 73
     1
 90
        0
 40
-0.6
 41
-30.0
 62
     5
 63
     7
421
 16777215
 74
     1
 91
        4
 64
     7
 65
   257
 75
     1
175
     1
 42
1.0
 92
        8
 66
     7
 43
1.0
 76
     1
 77
     6
 78
     2
 67
     7
 79
     5
170
     0
171
     0
290
     0
174
     0
 93
        1
 44
0.0
173
     0
291
     1
 45
0.0
  0
VISUALSTYLE
  5
F1
102
{ACAD_REACTORS
330
F0
102
}
330
F0
100
AcDbVisualStyle
  2
Flat
 70
     0
 71
     2
 72
     1
 73
     1
 90
        2
 40
-0.6
 41
30.0
 62
     5
 63
     7
421
 16777215
 74
     0
 91
        4
 64
     7
 65
   257
 75
     1
175
     1
 42
1.0
 92
        8
 66
     7
 43
1.0
 76
     1
 77
     6
 78
     2
 67
     7
 79
     5
170
     0
171
     0
290
     0
174
     0
 93
        1
 44
0.0
173
     0
291
     1
 45
0.0
  0
VISUALSTYLE
  5
F2
102
{ACAD_REACTORS
330
F0
102
}
330
F0
100
AcDbVisualStyle
  2
FlatWithEdges
 70
     1
 71
     2
 72
     1
 73
     1
 90
        2
 40
-0.6
 41
30.0
 62
     5
 63
     7
421
 16777215
 74
     1
 91
        4
 64
     7
 65
   257
 75
     1
175
     1
 42
1.0
 92
        0
 66
   257
 43
1.0
 76
     1
 77
     6
 78
     2
 67
     7
 79
     5
170
     0
171
     0
290
     0
174
     0
 93
        1
 44
0.0
173
     0
291
     1
 45
0.0
  0
VISUALSTYLE
  5
F3
102
{ACAD_REACTORS
330
F0
102
}
330
F0
100
AcDbVisualStyle
  2
Gouraud
 70
     2
 71
     2
 72
     2
 73
     1
 90
        2
 40
-0.6
 41
30.0
 62
     5
 63
     7
421
 16777215
 74
     0
 91
        4
 64
     7
 65
   257
 75
     1
175
     1
 42
1.0
 92
        0
 66
     7
 43
1.0
 76
     1
 77
     6
 78
     2
 67
     7
 79
     5
170
     0
171
     0
290
     0
174
     0
 93
        1
 44
0.0
173
     0
291
     1
 45
0.0
  0
VISUALSTYLE
  5
F4
102
{ACAD_REACTORS
330
F0
102
}
330
F0
100
AcDbVisualStyle
  2
GouraudWithEdges
 70
     3
 71
     2
 72
     2
 73
     1
 90
        2
 40
-0.6
 41
30.0
 62
     5
 63
     7
421
 16777215
 74
     1
 91
        4
 64
     7
 65
   257
 75
     1
175
     1
 42
1.0
 92
        0
 66
   257
 43
1.0
 76
     1
 77
     6
 78
     2
 67
     7
 79
     5
170
     0
171
     0
290
     0
174
     0
 93
        1
 44
0.0
173
     0
291
     1
 45
0.0
  0
VISUALSTYLE
  5
FE
102
{ACAD_REACTORS
330
F0
102
}
330
F0
100
AcDbVisualStyle
  2
Linepattern
 70
    14
 71
     2
 72
     2
 73
     1
 90
        0
 40
-0.6
 41
-30.0
 62
     5
 63
     7
421
 16777215
 74
     1
 91
        4
 64
     7
 65
   257
 75
     7
175
     7
 42
1.0
 92
        8
 66
     7
 43
1.0
 76
     1
 77
     6
 78
     2
 67
     7
 79
     5
170
     0
171
     0
290
     0
174
     0
 93
        1
 44
0.0
173
     0
291
     1
 45
0.0
  0
VISUALSTYLE
  5
FA
102
{ACAD_REACTORS
330
F0
102
}
330
F0
100
AcDbVisualStyle
  2
Realistic
 70
     8
 71
     2
 72
     2
 73
     1
 90
        0
 40
-0.6
 41
-30.0
 62
     5
 63
     7
421
 16777215
 74
     1
 91
        0
 64
     7
 65
   257
 75
     1
175
     1
 42
1.0
 92
        8
 66
     8
424
  7895160
 43
1.0
 76
     1
 77
     6
 78
     2
 67
     7
 79
     5
170
     0
171
     0
290
     0
174
     0
 93
       13
 44
0.0
173
     0
291
     0
 45
0.0
  0
VISUALSTYLE
  5
FD
102
{ACAD_REACTORS
330
F0
102
}
330
F0
100
AcDbVisualStyle
  2
Thicken
 70
    13
 71
     2
 72
     2
 73
     1
 90
        0
 40
-0.6
 41
-30.0
 62
     5
 63
     7
421
 16777215
 74
     1
 91
        4
 64
     7
 65
   257
 75
     1
175
     1
 42
1.0
 92
       12
 66
     7
 43
1.0
 76
     1
 77
     6
 78
     2
 67
     7
 79
     5
170
     0
171
     0
290
     0
174
     0
 93
        1
 44
0.0
173
     0
291
     1
 45
0.0
  0
DICTIONARYVAR
  5
84
102
{ACAD_REACTORS
330
5E
102
}
330
5E
100
DictionaryVariables
280
     0
  1
STANDARD
  0
DICTIONARYVAR
  5
5F
102
{ACAD_REACTORS
330
5E
102
}
330
5E
100
DictionaryVariables
280
     0
  1
2
  0
DICTIONARYVAR
  5
63
102
{ACAD_REACTORS
330
5E
102
}
330
5E
100
DictionaryVariables
280
     0
  1
1
  0
ENDSEC
  0
EOF
